Важное объявление!
У Нас Все раздачи мультитрекерные, при нуле пиров в релизах, можете смело вставать на закачку!
Статистика раздачи
Размер:     |    Зарегистрирован:     |    Скачан:     |   
Нет
 
     
 
 
Автор Сообщение

HUNTER

Стаж:
5 лет
Сообщений:
68414

Репутация: 101

[+] [-]
Вне форума [Профиль] [ЛС]

Долгий путь Билли Линна в перерыве футбольного матча
Billy Lynn's Long Halftime Walk
Год выпуска: 2016
Страна: США, Великобритания, Китай (TriStar Pictures, Studio 8, LStar Capital, Film4, Bona Film Group)
Жанр: Драма, Военный
Продолжительность: 01:52:46Перевод: Многоголосый закадровый - iTunesРежиссер: Энг Ли / Ang LeeРоли исполняли: Джо Элвин (Billy), Кристен Стюарт (Kathryn), Крис Такер (Albert), Гаррет Хедлунд (Dime), Вин Дизель (Shroom), Стив Мартин (Norm), Артуро Кастро (Mango), Мэйсон Ли (Foo), Астро (Lodis), Бо Напп (Crack), Исмаэль Круз (Holliday)Описание: В 2007 году 19-летний солдат Билли Линн и его взвод вступают в бой в Ираке. Бой снимают военные журналисты, кадры расходятся по всем новостям. Билли и его боевые товарищи становятся национальными героями и возвращаются в Америку на две недели для промо-тура, кульминацией которого становится шоу в перерыве футбольного матча в День благодарения. А после него они должны снова отправиться на войну.Премьера (мир): 14 октября 2016
Бюджет: $40 000 000
Кассовые сборы: $30 930 984

[img]https://rating.kinopoisk.ru/717351.gif[/img]. .
Качество: BDRip (by Ash61)
Контейнер: MKV
Формат 3D: Half OverUnder / Вертикальная анаморфная стереопара
Порядок ракурсов: левый ракурс первыйВидео: AVC / 1920х1080p / 23,976 fps / 13.6 MbpsАудио:
#1 - Русский / AC3 / 48 KHz / 2 ch / 256 Kbps (MVO - iTunes)
#2 - Английский / AC3 / 48 KHz / 5.1 ch / 640 Kbps (Original - BD 3D)Субтитры (внешние SRT UTF-8):
#1 - Русские Полные
#2 - Украинские Полные
#3 - English Full
#4 - English SDH

MediaInfo

General
Unique ID : 227055034100207006661475794807856760351 (0xAAD1357BC3B1D19491562CC0183B061F)
Complete name : E:\BillyLynn'sLongHalftimeWalk(2016)3D-halfOU(Ash61)iTunes\BillyLynn'sLongHalftimeWalk(2016)3D-halfOU(Ash61)iTunes.mkv
Format : Matroska
Format version : Version 2
File size : 11.7 GiB
Duration : 1h 52mn
Overall bit rate : 14.8 Mbps
Movie name : Долгий путь Билли Линна в перерыве футбольного матча / Billy Lynn's Long Halftime Walk (2016) в 3Д
Encoded date : UTC 2017-02-23 23:05:26
Writing application : mkvmerge v5.8.0 ('No Sleep / Pillow') built on Sep 2 2012 15:37:04
Writing library : libebml v1.2.3 + libmatroska v1.3.0Video
ID : 1
Format : AVC
Format/Info : Advanced Video Codec
Format profile : High@L4.1
Format settings, CABAC : Yes
Format settings, ReFrames : 4 frames
Codec ID : V_MPEG4/ISO/AVC
Duration : 1h 52mn
Bit rate : 13.6 Mbps
Width : 1 920 pixels
Height : 1 080 pixels
Display aspect ratio : 16:9
Frame rate mode : Constant
Frame rate : 23.976 fps
Color space : YUV
Chroma subsampling : 4:2:0
Bit depth : 8 bits
Scan type : Progressive
Bits/(Pixel*Frame) : 0.274
Stream size : 10.7 GiB (92%)
Title : BDRip by Ash61
Writing library : x264 core 146 r2538 121396c
Encoding settings : cabac=1 / ref=4 / deblock=1:-3:-3 / analyse=0x3:0x113 / me=umh / subme=10 / psy=1 / psy_rd=1.00:0.00 / mixed_ref=1 / me_range=32 / chroma_me=1 / trellis=2 / 8x8dct=1 / cqm=0 / deadzone=21,11 / fast_pskip=1 / chroma_qp_offset=-2 / threads=12 / lookahead_threads=3 / sliced_threads=0 / nr=0 / decimate=1 / interlaced=0 / bluray_compat=0 / constrained_intra=0 / bframes=10 / b_pyramid=2 / b_adapt=2 / b_bias=0 / direct=3 / weightb=1 / open_gop=0 / weightp=2 / keyint=250 / keyint_min=23 / scenecut=40 / intra_refresh=0 / rc_lookahead=60 / rc=crf / mbtree=1 / crf=14.8 / qcomp=0.70 / qpmin=0 / qpmax=69 / qpstep=4 / vbv_maxrate=40000 / vbv_bufsize=30000 / crf_max=0.0 / nal_hrd=none / filler=0 / frame-packing=4 / ip_ratio=1.40 / aq=1:0.70
Language : English
Default : Yes
Forced : NoAudio #1
ID : 2
Format : AC-3
Format/Info : Audio Coding 3
Mode extension : CM (complete main)
Format settings, Endianness : Big
Codec ID : A_AC3
Duration : 1h 52mn
Bit rate mode : Constant
Bit rate : 256 Kbps
Channel(s) : 2 channels
Channel positions : Front: L R
Sampling rate : 48.0 KHz
Bit depth : 16 bits
Compression mode : Lossy
Stream size : 206 MiB (2%)
Title : Многоголосый закадровый - iTunes
Language : Russian
Default : Yes
Forced : NoAudio #2
ID : 3
Format : AC-3
Format/Info : Audio Coding 3
Mode extension : CM (complete main)
Format settings, Endianness : Big
Codec ID : A_AC3
Duration : 1h 52mn
Bit rate mode : Constant
Bit rate : 640 Kbps
Channel(s) : 6 channels
Channel positions : Front: L C R, Side: L R, LFE
Sampling rate : 48.0 KHz
Bit depth : 16 bits
Compression mode : Lossy
Stream size : 516 MiB (4%)
Title : Original - BD 3D
Language : English
Default : No
Forced : NoMenu
00:00:00.000 : :1
00:06:05.865 : :2
00:13:21.884 : :3
00:20:11.293 : :4
00:26:24.541 : :5
00:31:10.410 : :6
00:39:05.426 : :7
00:48:51.929 : :8
00:55:58.605 : :9
01:04:18.354 : :10
01:10:16.712 : :11
01:17:14.630 : :12
01:22:08.507 : :13
01:29:13.265 : :14
01:35:21.591 : :15
01:42:52.458 : :16

Для оценки 3Д - Анимированные скрины
















_________________
Показать сообщения:    

Текущее время: Сегодня 17:30

Часовой пояс: GMT



Вы не можете начинать темы
Вы не можете отвечать на сообщения
Вы не можете редактировать свои сообщения
Вы не можете удалять свои сообщения
Вы не можете голосовать в опросах
Вы не можете прикреплять файлы к сообщениям
Вы не можете скачивать файлы