Важное объявление!
У Нас Все раздачи мультитрекерные, при нуле пиров в релизах, можете смело вставать на закачку!
 
Автор Сообщение

HUNTER

Стаж:
4 года 7 месяцев
Сообщений:
61564

Репутация: 101

[+] [-]
Вне форума [Профиль] [ЛС]

Долгая счастливая жизнь
Страна:Россия
Студия:Кинокомпания Коктебель.
Жанр:Драма.
Год выпуска:2012
Продолжительность:01:15:40
Перевод :Не требуется
Cубтитры:Английские
Оригинальная аудиодорожка:Русский
Премьера (мир):9.02.2013
Режиссер:Борис Хлебников
В ролях:Александр Яценко — Александр Сергеевич
Анна Котова — Анна
Евгений Сытый — Женя
Инна Стерлигова — жена Жени
Владимир Коробейников — Володя
Сергей Наседкин — Серёга
Александр Алябьев — Сашка
Сергей Пестриков — Серёжка
Глеб Пускепалис — Олежка
Описание: Молодой предприниматель Саша поставлен перед выбором: получив компенсацию, мирно расстаться с налаженным хозяйством и уехать в город с любимой девушкой или вступить в опасную борьбу с новыми владельцами, чтобы отстоять права живущих на его земле людей.

Доп. информация:Исходник найден в сети.Сценарий:Александр Родионов, Борис Хлебников
Продюсер:Роман Борисевич, Александр Кушаев
Оператор:Павел Костомаров
Художник:Ольга Хлебникова, Светлана Михайлова
Монтаж:Иван Лебедев

Это интересно

Хлебников, Борис Игоревич-https://ru.wikipedia.org/wiki/Хлебников,_Борис_Игоревич Фильм-[url=https://ru.wikipedia.org/wiki/Долгая_счастливая_жизнь_(фильм,_2013)]https://ru.wikipedia.org/wiki/Долгая_счастливая_жизнь_(фильм,_2013)[/url]

Знаете ли вы, что...

Место съемок фильма — Мурманская область (Тьерский район), поселок Умба на берегу Белого моря. Съемки проходили на территории хозяйства, любезно предоставленного местным фермером. Жители поселка принимали в съемках непосредственное участие.
В первые дни группа работала над сценой пожара, специально построив для этого целую улицу с деревянными домами, а также разгрузила около 200 мешков картошки.По словам Бориса Хлебникова первоначальным толчком для создания сценария послужил фильм-вестерн 1952 года «Ровно в полдень» режиссёра Фреда Циннемана.

Награды и номинации

Рецензия

Меню:Русский, анимированное, озвученное.
Сэмпл:http://multi-up.com/1011658
Тип релиза:DVDх5
Контейнер:DVD-Video
Видео:PAL 16:9 (720x576) VBR, Auto Pan&Scan, Auto Letterboxed, 6523 Кбит/сек, 25,000 кадров/сек
Аудио 1:Русский:AC3, 6 ch, 48.0 KHz, 256 Кбит/сек
Аудио 2:Русский:DTS, 6 ch, 48.0 KHz, 755 Кбит/сек
Формат субтитров:prerendered (DVD/IDX+SUB)

Dvd Info

Title: Долгая счастливая жизнь
Size: 4.19 Gb ( 4 392 004,00 KBytes ) - DVD-5
Enabled regions: 1, 2, 3, 4, 5, 6, 7, 8
VTS_01 :
Play Length: 00:00:10
Video: PAL 16:9 (720x576) VBR, Auto Pan&Scan, Auto Letterboxed
VTS_02 :
Play Length: 00:00:06
Video: PAL 16:9 (720x576) VBR, Auto Pan&Scan, Auto Letterboxed
VTS_03 :
Play Length: 01:15:40
Video: PAL 16:9 (720x576) VBR, Auto Pan&Scan, Auto Letterboxed
Audio:
Not specified, AC3, 3/2 (L,C,R,SL,SR)+LFE ch, 256 kbps, Delay 0 mSec
Not specified, DTS, 3/2 (L,C,R,SL,SR), 768 kbps, Delay 0 mSec
Subtitles:
Not specified
Not specified
VTS_04 :
Play Length: 00:00:05
Video: PAL 16:9 (720x576) VBR, Auto Pan&Scan, Auto Letterboxed
Audio:
Not specified, AC3, 3/2 (L,C,R,SL,SR)+LFE ch, 256 kbps, Delay 0 mSec
Not specified, AC3, 3/2 (L,C,R,SL,SR)+LFE ch, 256 kbps, Delay 0 mSec
Subtitles:
Not specified
Not specified

MediaInfo


Общее
Полное имя: F:\Долгая счастливая жизнь\VIDEO_TS\VTS_03_2.VOB
Формат : MPEG-PS
Размер файла : 1024 Мбайт
Продолжительность : 18 м.
Режим общего битрейта : Переменный
Общий поток : 7687 Кбит/сек
Видео
Идентификатор : 224 (0xE0)
Формат : MPEG Video
Версия формата : Version 2
Профиль формата : Main@Main
Параметр BVOP формата : Да
Параметр матрицы формата : Выборочная
Параметр GOP формата : M=3, N=15
Продолжительность : 18 м.
Вид битрейта : Переменный
Битрейт : 6523 Кбит/сек
Максимальный битрейт : 8500 Кбит/сек
Ширина : 720 пикселей
Высота : 576 пикселей
Соотношение сторон : 16:9
Частота кадров : 25,000 кадров/сек
Стандарт вещания : PAL
Цветовое пространство : YUV
Субдискретизация насыщенности : 4:2:0
Битовая глубина : 8 бит
Тип развёртки : Чересстрочная
Порядок развёртки : Верхнее поле первое
Метод сжатия : С потерями
Бит/(Пиксели*Кадры) : 0.629
Временной код первого кадра : 01:18:49:13
Оригинал временного кода : Group of pictures header
Размер потока : 869 Мбайт (85%)
Аудио #1
Идентификатор : 189 (0xBD)-128 (0x80)
Формат : AC-3
Формат/Информация : Audio Coding 3
Расширение режима : CM (complete main)
Параметр Endianness формата : Big
Режим смешивания : DVD-Video
Продолжительность : 18 м.
Вид битрейта : Постоянный
Битрейт : 256 Кбит/сек
Каналы : 6 каналов
Расположение каналов : Front: L C R, Side: L R, LFE
Частота : 48,0 КГц
Битовая глубина : 16 бит
Метод сжатия : С потерями
Задержка видео : -848 мс.
Размер потока : 34,1 Мбайт (3%)
Аудио #2
Идентификатор : 189 (0xBD)-137 (0x89)
Формат : DTS
Формат/Информация : Digital Theater Systems
Режим : 16
Параметр Endianness формата : Big
Режим смешивания : DVD-Video
Продолжительность : 18 м.
Вид битрейта : Постоянный
Битрейт : 755 Кбит/сек
Каналы : 6 каналов
Расположение каналов : Front: L C R, Side: L R, LFE
Частота : 48,0 КГц
Битовая глубина : 16 бит
Метод сжатия : С потерями
Задержка видео : -901 мс.
Размер потока : 101 Мбайт (10%)
Текст
Идентификатор : 189 (0xBD)-33 (0x21)
Формат : RLE
Формат/Информация : Run-length encoding
Режим смешивания : DVD-Video
Задержка видео : 1 с. 360 мс.

Скриншоты меню

Скриншоты

Полиграфия








Уважаемые пользователи!Найдите пару минут поблагодарить релизера и высказаться в топике раздачи.Ваше мнение - бальзам для раздающего и пища для ума остальным пользователям.Мои раздачи

_________________
Показать сообщения:    

Текущее время: Сегодня 18:53

Часовой пояс: GMT



Вы не можете начинать темы
Вы не можете отвечать на сообщения
Вы не можете редактировать свои сообщения
Вы не можете удалять свои сообщения
Вы не можете голосовать в опросах
Вы не можете прикреплять файлы к сообщениям
Вы не можете скачивать файлы
Наши партнеры: интернет магазин Ивановского трикотажа textilla.ru