Ивановский Торрент трекер
Яндекс.Погода
 

[Цитировать]
HUNTER

Долгая страстная пятница / The Long Good Friday [Remastered]
Страна: Великобритания
Жанр: Триллер, Драма, Криминал, Детектив
Год выпуска: 1980
Продолжительность: 01:54:02-Перевод 1: Профессиональный (многоголосый закадровый)
Перевод 2: Профессиональный (двухголосый закадровый)
Перевод 3: Авторский (одноголосый закадровый) Петр Карцев
Cубтитры: английские
Оригинальная аудиодорожка: английский-Режиссер: Джон МакКензи / John MacKenzie
В ролях: Боб Хоскинс, Хелен Миррен, Дерек Томпсон, Брайан Маршалл, П.Х. Мориарти, Дейв Кинг, Пол Фримен, Пирс Броснан, Эдди Константин, Лео Долан-Описание: Напряженная гангстерская драма, действие которой происходит в Лондоне. Хоскинс играет нервного, но решительного главаря мафии Гарольда Шенда, пытающегося открыть свое легальное "дело" - большое Казино. В этот день приезжают американские партнеры, без помощи которых дело не выгорит, и в самый ответственный момент все планы решительно идут вразнос: кто-то подрывает мамин Роллс-Ройс, убивает лучшего друга, и чуть не взрывает Казино. Гарольд понимает, что "нормальные люди без предьявы не воюют", и решительно пытается найти негодяев, но ни один человек не знает кто же обьявил ему войну. Кто же этот таинственный враг, изо всех сил пытающийся разрушить жизнь Гарольда?
-Сэмпл: https://yadi.sk/i/2vn-QHt8jyphM-Доп. информация: Рип со свежего британского трансфера. Сравнение со старым блюром - http://caps-a-holic.com/hd_vergleiche/multi_compari...sless=#vergleich-Тип релиза: BDRip 1080p
Контейнер: MKV-Видео: AVC, 1920x1040 (1.85:1), 13087 kbps, 23.976 fps
Аудио 1: AC-3 / 2.0 ch / 48 kHz / 16 bit / 192 kbps - MVO.
Аудио 2: AC-3 / 2.0 ch / 48 kHz / 16 bit / 192 kbps - DVO.
Аудио 3: AC-3 / 2.0 ch / 48 kHz / 16 bit / 192 kbps - AVO [Karcev].
Аудио 4: AC-3 / 1.0 ch / 48 kHz / 16 bit / 640 kbps - Original.
Формат субтитров: softsub (SRT)

MediaInfo

D:\Sem\Desktop\Долгая Страстная пятница [Remastered] BDRip. 1080p..mkv
General
Unique ID : 236733442018859081914976510129632971291 (0xB21933D5DF9284139B77464923000A1B)
Complete name : D:\Sem\Desktop\Долгая Страстная пятница [Remastered] BDRip. 1080p..mkv
Format : Matroska
Format version : Version 4 / Version 2
File size : 11.4 GiB
Duration : 1h 54mn
Overall bit rate : 14.3 Mbps
Encoded date : UTC 2015-10-25 10:15:33
Writing application : mkvmerge v6.6.0 ('The Edge Of The In Between') built on Dec 1 2013 17:55:00
Writing library : libebml v1.3.0 + libmatroska v1.4.1
Video #1
ID : 1
Format : AVC
Format/Info : Advanced Video Codec
Format profile : High@L4.1
Format settings, CABAC : Yes
Format settings, ReFrames : 4 frames
Codec ID : V_MPEG4/ISO/AVC
Duration : 1h 54mn
Bit rate : 13.1 Mbps
Width : 1 920 pixels
Height : 1 040 pixels
Display aspect ratio : 1.85:1
Frame rate : 23.976 fps
Color space : YUV
Chroma subsampling : 4:2:0
Bit depth : 8 bits
Scan type : Progressive
Bits/(Pixel*Frame) : 0.273
Stream size : 10.2 GiB (90%)
Writing library : x264 core 146 r2538 121396c
Encoding settings : cabac=1 / ref=4 / deblock=1:-3:-3 / analyse=0x3:0x133 / me=umh / subme=10 / psy=1 / psy_rd=1.15:0.00 / mixed_ref=1 / me_range=32 / chroma_me=1 / trellis=2 / 8x8dct=1 / cqm=0 / deadzone=21,11 / fast_pskip=0 / chroma_qp_offset=-2 / threads=24 / lookahead_threads=4 / sliced_threads=0 / nr=0 / decimate=1 / interlaced=0 / bluray_compat=0 / constrained_intra=0 / bframes=8 / b_pyramid=2 / b_adapt=2 / b_bias=0 / direct=3 / weightb=1 / open_gop=0 / weightp=2 / keyint=240 / keyint_min=24 / scenecut=40 / intra_refresh=0 / rc_lookahead=60 / rc=2pass / mbtree=1 / bitrate=13085 / ratetol=1.0 / qcomp=0.60 / qpmin=0 / qpmax=69 / qpstep=4 / cplxblur=20.0 / qblur=0.5 / ip_ratio=1.40 / aq=3:0.70
Language : English
Default : Yes
Forced : No
Audio #2
ID : 2
Format : AC-3
Format/Info : Audio Coding 3
Mode extension : CM (complete main)
Format settings, Endianness : Big
Codec ID : A_AC3
Duration : 1h 54mn
Bit rate mode : Constant
Bit rate : 192 Kbps
Channel(s) : 2 channels
Channel positions : Front: L R
Sampling rate : 48.0 KHz
Bit depth : 16 bits
Compression mode : Lossy
Stream size : 157 MiB (1%)
Title : AC-3 / 2.0 ch / 48 kHz / 16 bit / 192 kbps - MVO [?].
Language : Russian
Default : Yes
Forced : No
Audio #3
ID : 3
Format : AC-3
Format/Info : Audio Coding 3
Mode extension : CM (complete main)
Format settings, Endianness : Big
Codec ID : A_AC3
Duration : 1h 54mn
Bit rate mode : Constant
Bit rate : 192 Kbps
Channel(s) : 2 channels
Channel positions : Front: L R
Sampling rate : 48.0 KHz
Bit depth : 16 bits
Compression mode : Lossy
Stream size : 157 MiB (1%)
Title : AC-3 / 2.0 ch / 48 kHz / 16 bit / 192 kbps - DVO [?].
Language : Russian
Default : No
Forced : No
Audio #4
ID : 4
Format : AC-3
Format/Info : Audio Coding 3
Mode extension : CM (complete main)
Format settings, Endianness : Big
Codec ID : A_AC3
Duration : 1h 54mn
Bit rate mode : Constant
Bit rate : 192 Kbps
Channel(s) : 2 channels
Channel positions : Front: L R
Sampling rate : 48.0 KHz
Bit depth : 16 bits
Compression mode : Lossy
Stream size : 157 MiB (1%)
Title : AC-3 / 2.0 ch / 48 kHz / 16 bit / 192 kbps - AVO [Karcev].
Language : Russian
Default : No
Forced : No
Audio #5
ID : 5
Format : AC-3
Format/Info : Audio Coding 3
Mode extension : CM (complete main)
Format settings, Endianness : Big
Codec ID : A_AC3
Duration : 1h 54mn
Bit rate mode : Constant
Bit rate : 640 Kbps
Channel(s) : 1 channel
Channel positions : Front: C
Sampling rate : 48.0 KHz
Bit depth : 16 bits
Compression mode : Lossy
Stream size : 522 MiB (4%)
Title : AC-3 / 1.0 ch / 48 kHz / 16 bit / 640 kbps - Original.
Language : English
Default : No
Forced : No
Text #6
ID : 6
Format : UTF-8
Codec ID : S_TEXT/UTF8
Codec ID/Info : UTF-8 Plain Text
Language : English
Default : No
Forced : No
Text #7
ID : 7
Format : UTF-8
Codec ID : S_TEXT/UTF8
Codec ID/Info : UTF-8 Plain Text
Title : SDH
Language : English
Default : No
Forced : No

Скриншоты

0 человек читают эту тему: 0 пользователей, 0 скрытых пользователей, 0 гостей

Показать сообщения:    

Текущее время: 24-Авг 09:30

Часовой пояс: UTC - 1


Вы не можете начинать темы
Вы не можете отвечать на сообщения
Вы не можете редактировать свои сообщения
Вы не можете удалять свои сообщения
Вы не можете голосовать в опросах
Вы не можете прикреплять файлы к сообщениям
Вы не можете скачивать файлы

!ВНИМАНИЕ!
Сайт не предоставляет электронные версии произведений, а занимается лишь коллекционированием и каталогизацией ссылок, присылаемых и публикуемых на форуме нашими читателями. Если вы являетесь правообладателем какого-либо представленного материала и не желаете, чтобы ссылка на него находилась в нашем каталоге, свяжитесь с нами, и мы незамедлительно удалим ее. Файлы для обмена на трекере предоставлены пользователями сайта, и администрация не несет ответственности за их содержание. Просьба не заливать файлы, защищенные авторскими правами, а также файлы нелегального содержания!