Ивановский Торрент трекер
Яндекс.Погода
 

[Цитировать]
HUNTER

Документальное расследование. Космос
Год выпуска: 1996
Страна: Россия
Жанр: документальный, публицистика, расследование
Продолжительность: 00:45:49
Телеканал: Совершенно секретно
Описание: Однажды космонавт Иванченков и Ковалёнок, занимаясь орбитальными экспериментами, включили какой-то тумблер, и внезапно из всех динамиков станции донеслось: «Здорово, отцы!». Реальная жизнь на кораблях и станциях – это не только смертельно-опасная работа: взлёты, посадки, официальные репортажи, это, прежде всего, обычная жизнь обычных людей, малознакомый и абсолютно другой космос. Подробности в документальном расследовании на телеканале «Совершенно секретно».
Содержание:
Часть первая
Часть вторая
Качество: DVB
Контейнер: MPG
Видео кодек: MPEG2
Видео: MPEG2 Video 720x576 (4:3) 25fps 1555kbps
Аудио: MPEG Audio 48000Hz stereo 192kbps
Скриншоты MI
GeneralComplete name : Космос (1996) [Совершенно секретно].mpgFormat : MPEG-PSFile size : 584 MiBDuration : 45mn 49sOverall bit rate mode : VariableOverall bit rate : 1 782 KbpsWriting library : (dvd5: Feb 21 2014)
VideoID : 224 (0xE0)Format : MPEG VideoFormat version : Version 2Format profile : Main@MainFormat settings, BVOP : NoFormat settings, Matrix : CustomFormat settings, GOP : VariableDuration : 45mn 49sBit rate mode : VariableBit rate : 1 555 KbpsMaximum bit rate : 15.0 MbpsWidth : 720 pixelsHeight : 576 pixelsDisplay aspect ratio : 4:3Frame rate : 25.000 fpsStandard : PALColor space : YUVChroma subsampling : 4:2:0Bit depth : 8 bitsScan type : InterlacedScan order : Top Field FirstCompression mode : LossyBits/(Pixel*Frame) : 0.150Time code of first frame : 00:00:00:00Time code source : Group of pictures headerStream size : 510 MiB (87%)Source encoded stream size : (dvd5: Feb 21 2014)Writing library : (dvd5: Feb 21 2014)
AudioID : 192 (0xC0)Format : MPEG AudioFormat version : Version 1Format profile : Layer 2Duration : 45mn 49sBit rate mode : ConstantBit rate : 192 KbpsChannel(s) : 2 channelsSampling rate : 48.0 KHzCompression mode : LossyStream size : 62.9 MiB (11%)
Другие программы из цикла «Документальное расследование»
Показать сообщения:    

Текущее время: 22-Окт 21:41

Часовой пояс: UTC - 1


Вы не можете начинать темы
Вы не можете отвечать на сообщения
Вы не можете редактировать свои сообщения
Вы не можете удалять свои сообщения
Вы не можете голосовать в опросах
Вы не можете прикреплять файлы к сообщениям
Вы не можете скачивать файлы

!ВНИМАНИЕ!
Сайт не предоставляет электронные версии произведений, а занимается лишь коллекционированием и каталогизацией ссылок, присылаемых и публикуемых на форуме нашими читателями. Если вы являетесь правообладателем какого-либо представленного материала и не желаете, чтобы ссылка на него находилась в нашем каталоге, свяжитесь с нами, и мы незамедлительно удалим ее. Файлы для обмена на трекере предоставлены пользователями сайта, и администрация не несет ответственности за их содержание. Просьба не заливать файлы, защищенные авторскими правами, а также файлы нелегального содержания!