Ивановский Торрент трекер
Яндекс.Погода
 

[Цитировать]
HUNTER

Доктор Кто. Темная вода + Смерть на небесах. / Doctor Who. Dark Water + Death in Heaven.
Год выпуска: 2015
Страна: Великобритания
Студия: BBC
Жанр: Научная фантастика.
Продолжительность: 01.44.56
Перевод: Профессиональный (многоголосый закадровый)
Русские субтитры: есть
Режиссер на русском: Рэйчел Талалэй
Режиссер на английском: Rachel Talalay
В ролях: Питер Капальди, Дженна Коулман, Мишель Гомес, Сэмюэль Андерсон, Джемма Редгрейв, Ингрид Оливер
Описание: Загадочный мир под названием «Нетерсфера». План тщательно отработан. Старые друзья и старые враги плетут интриги вокруг Доктора, и перед ним нависла невозможная дилемма. "Смерть - ещё не конец", обещала зловещая организация под названием 3W, но, может быть, по ходу расследования, Доктору и Кларе захочется, чтобы это было не так.
Дополнительная информация по релизу: Это студийная конвертация двух эпизодов 8-го сезона. Данную двухсерийку показывали в кинотеатрах некоторых стран, в предверии 9 сезона.
Сэмпл: http://sendfile.su/1166211
Качество: BDrip
Контейнер: MKV
Формат 3D: Half OverUnder / Вертикальная анаморфная стереопара
Видео кодек: h.264
Аудио кодек: AC3
Видео: AVC/H.264, 1920x1080, 16:9, ~16,0 Мбит/сек, 23.976 fps
Аудио: AC3 5.1, 48 kHz, 384 kbps (Baibako, многоголосый закадровый)
Аудио 2: AC3 5.1, 48 kHz, 640 kbps
Субтитры: Русские

MediaInfo

General
Unique ID : 197507459571070663434239523178419206081 (0x94968D9585AE947B9BFB1507630E37C1)
Complete name : G:\DoctorWho.DarkWater+DeathInHeaven.3DHalfOU.mkv
Format : Matroska
Format version : Version 2
File size : 12.7 GiB
Duration : 1h 44mn
Overall bit rate : 17.4 Mbps
Movie name : Doctor_Who_Dark_Water+Death_Heaven_3D_HO/U
Encoded date : UTC 2015-10-19 18:41:28
Writing application : mkvmerge v5.6.0 ('Kenya Kane') built on Jun 29 2012 15:01:44
Writing library : libebml v1.2.3 + libmatroska v1.3.0
Video
ID : 1
Format : AVC
Format/Info : Advanced Video Codec
Format profile : High@L4.1
Format settings, CABAC : Yes
Format settings, ReFrames : 4 frames
Codec ID : V_MPEG4/ISO/AVC
Duration : 1h 44mn
Bit rate : 16.0 Mbps
Width : 1 920 pixels
Height : 1 080 pixels
Display aspect ratio : 16:9
Frame rate mode : Variable
Frame rate : 23.976 fps
Color space : YUV
Chroma subsampling : 4:2:0
Bit depth : 8 bits
Scan type : Progressive
Bits/(Pixel*Frame) : 0.322
Stream size : 11.7 GiB (92%)
Writing library : x264 core 128 r2216M 198a7ea
Encoding settings : cabac=1 / ref=4 / deblock=1:-3:-3 / analyse=0x3:0x133 / me=umh / subme=10 / psy=1 / psy_rd=1.00:0.15 / mixed_ref=1 / me_range=32 / chroma_me=1 / trellis=2 / 8x8dct=1 / cqm=0 / deadzone=21,11 / fast_pskip=1 / chroma_qp_offset=-3 / threads=8 / lookahead_threads=1 / sliced_threads=0 / nr=0 / decimate=1 / interlaced=0 / bluray_compat=0 / constrained_intra=0 / bframes=8 / b_pyramid=2 / b_adapt=2 / b_bias=0 / direct=3 / weightb=1 / open_gop=0 / weightp=2 / keyint=230 / keyint_min=23 / scenecut=40 / intra_refresh=0 / rc_lookahead=60 / rc=crf / mbtree=1 / crf=16.0 / qcomp=0.60 / qpmin=10 / qpmax=69 / qpstep=4 / ip_ratio=1.40 / aq=1:0.90
Default : Yes
Forced : No
Audio #1
ID : 2
Format : AC-3
Format/Info : Audio Coding 3
Mode extension : CM (complete main)
Codec ID : A_AC3
Duration : 1h 44mn
Bit rate mode : Constant
Bit rate : 384 Kbps
Channel(s) : 6 channels
Channel positions : Front: L C R, Side: L R, LFE
Sampling rate : 48.0 KHz
Bit depth : 16 bits
Compression mode : Lossy
Stream size : 288 MiB (2%)
Title : MVO (Baibako)
Language : Russian
Default : Yes
Forced : No
Audio #2
ID : 3
Format : AC-3
Format/Info : Audio Coding 3
Mode extension : CM (complete main)
Codec ID : A_AC3
Duration : 1h 44mn
Bit rate mode : Constant
Bit rate : 640 Kbps
Channel(s) : 6 channels
Channel positions : Front: L C R, Side: L R, LFE
Sampling rate : 48.0 KHz
Bit depth : 16 bits
Compression mode : Lossy
Stream size : 480 MiB (4%)
Title : Original
Language : English
Default : No
Forced : No
Text
ID : 4
Format : UTF-8
Codec ID : S_TEXT/UTF8
Codec ID/Info : UTF-8 Plain Text
Title : Full
Language : Russian
Default : Yes
Forced : No
Menu
00:00:00.000 : en:00:00:00.000
00:05:00.000 : en:00:05:00.000
00:10:00.000 : en:00:10:00.000
00:15:00.000 : en:00:15:00.000
00:20:00.000 : en:00:20:00.000
00:25:00.000 : en:00:25:00.000
00:30:00.000 : en:00:30:00.000
00:35:00.000 : en:00:35:00.000
00:40:00.000 : en:00:40:00.000
00:45:00.000 : en:00:45:00.000
00:50:00.000 : en:00:50:00.000
00:55:00.000 : en:00:55:00.000
01:00:00.000 : en:01:00:00.000
01:05:00.000 : en:01:05:00.000
01:10:00.000 : en:01:10:00.000
01:15:00.000 : en:01:15:00.000
01:20:00.000 : en:01:20:00.000
01:25:00.000 : en:01:25:00.000
01:30:00.000 : en:01:30:00.000
01:35:00.000 : en:01:35:00.000
01:40:00.000 : en:01:40:00.000

Скриншоты



Показать сообщения:    

Текущее время: 13-Дек 11:03

Часовой пояс: UTC ± 0


Вы не можете начинать темы
Вы не можете отвечать на сообщения
Вы не можете редактировать свои сообщения
Вы не можете удалять свои сообщения
Вы не можете голосовать в опросах
Вы не можете прикреплять файлы к сообщениям
Вы не можете скачивать файлы

!ВНИМАНИЕ!
Сайт не предоставляет электронные версии произведений, а занимается лишь коллекционированием и каталогизацией ссылок, присылаемых и публикуемых на форуме нашими читателями. Если вы являетесь правообладателем какого-либо представленного материала и не желаете, чтобы ссылка на него находилась в нашем каталоге, свяжитесь с нами, и мы незамедлительно удалим ее. Файлы для обмена на трекере предоставлены пользователями сайта, и администрация не несет ответственности за их содержание. Просьба не заливать файлы, защищенные авторскими правами, а также файлы нелегального содержания!