Довольно слов / Enough Said (Николь Холофсенер) [2013, драма, мелодрама, комедия, HDRip][Лицензия] :: Ивановский Торрент трекер
Важное объявление!
У Нас Все раздачи мультитрекерные, при нуле пиров в релизах, можете смело вставать на закачку!
Статистика раздачи
Размер:     |    Зарегистрирован:     |    Скачан:     |   
Нет
 
     
 
 
Автор Сообщение

HUNTER

Стаж:
4 года 11 месяцев
Сообщений:
66077

Репутация: 101

[+] [-]
Вне форума [Профиль] [ЛС]

Довольно слов / Enough Said-
Год выпуска: 2013
Страна: США
Жанр: драма, мелодрама, комедия
Продолжительность: 01:33:00
Перевод: Профессиональный (многоголосый) [Лицензия]
Субтитры: Нет-В ролях: Джулия Луис-Дрейфус, Джеймс Гандольфини, Кэтрин Кинер, Тони Коллетт, Бен Фэлкуон, Ленни Лофтин, Джессика Ст. Клэр, Кристофер Николас Смит, Трэйси Фэирэуэй-Режиссёр: Николь Холофсенер- -Ева развелась и столкнулась со сложным моментом в жизни — что делать дальше? Она знакомится с другим обаятельным мужчиной, который оказывается бывшим мужем женщины, которая всегда была для нее идеалом.-Качество: HDRip
Формат: AVI
Видео кодек: XviD
Аудио кодек: АС3
Видео: XviD, 720x384, 1711 Кбит/сек, 23.976 кадр/сек
Аудио 1: АС3, 448 Кбит/сек, 6 канала(ов), 48,0 КГц
-

Рейтинг:

Рейтинг:

MediaInfo:

General
Complete name : C:\Users\Електростаил\Desktop\Рипы\Dovolno.Slov.2013.HDRip.avi
Format : AVI
Format/Info : Audio Video Interleave
File size : 1.41 GiB
Duration : 1h 32mn
Overall bit rate : 2 168 Kbps
Writing application : VirtualDubMod 1.5.10.2 (build 2540/release)
Writing library : VirtualDubMod build 2540/release
Video
ID : 0
Format : MPEG-4 Visual
Format profile : Advanced Simple@L5
Format settings, BVOP : Yes
Format settings, QPel : No
Format settings, GMC : No warppoints
Format settings, Matrix : Custom
Codec ID : XVID
Codec ID/Hint : XviD
Duration : 1h 32mn
Bit rate : 1 711 Kbps
Width : 720 pixels
Height : 384 pixels
Display aspect ratio : 1.85:1
Frame rate : 23.976 fps
Color space : YUV
Chroma subsampling : 4:2:0
Bit depth : 8 bits
Scan type : Progressive
Compression mode : Lossy
Bits/(Pixel*Frame) : 0.258
Stream size : 1.11 GiB (79%)
Writing library : XviD 1.2.1 (UTC 2008-12-04)
Audio
ID : 1
Format : AC-3
Format/Info : Audio Coding 3
Mode extension : CM (complete main)
Format settings, Endianness : Big
Codec ID : 2000
Duration : 1h 32mn
Bit rate mode : Constant
Bit rate : 448 Kbps
Channel count : 6 channels
Channel positions : Front: L C R, Side: L R, LFE
Sampling rate : 48.0 KHz
Bit depth : 16 bits
Compression mode : Lossy
Stream size : 298 MiB (21%)
Alignment : Split accross interleaves
Interleave, duration : 42 ms (1.00 video frame)
Interleave, preload duration : 500 ms

Скриншоты:

-Источник:

_________________
Показать сообщения:    

Текущее время: Сегодня 06:54

Часовой пояс: GMT



Вы не можете начинать темы
Вы не можете отвечать на сообщения
Вы не можете редактировать свои сообщения
Вы не можете удалять свои сообщения
Вы не можете голосовать в опросах
Вы не можете прикреплять файлы к сообщениям
Вы не можете скачивать файлы