Ивановский Торрент трекер
Яндекс.Погода
 

[Цитировать]
HUNTER

Добрыня Никитич и Змей Горыныч
Страна: Россия
Жанр: мультфильм, комедия, приключения
Продолжительность: 01:08:08
Год выпуска: 2006
Русские субтитры: нет-Режиссёр: Илья Максимов
Роли озвучивали: Валерий Соловьев (Добрыня Никитич), Юрий Тарасов (Елисей), Сергей Маковецкий (Князь Киевский), Андрей Толубеев (Купец Колыван), Екатерина Гороховская (Забава Путятична), Олег Куликович (Змей Горыныч), Анатолий Петров (Бекет - Крымский Хан), Наталья Данилова (Баба Яга)-Описание: Отправился Добрыня Никитич спасать княжескую племянницу Забаву из лап Змея Горыныча. Но непросто будет Добрыне и его юному ученику Елисею выполнить задуманное. Не знает Добрыня, и даже не догадывается, что сам Князь поставлен в безвыходное положение и вовсе не заинтересован в возвращении племянницы. Тяжкое испытание предстоит Добрыне – познать горечь предательства. Однако не суждено будет сбыться злодейским планам – даже Баба Яга окажется бессильна перед прямым и честным Добрыней и другом его Елисеем...
-
Качество: BDRip || Исх.: BDRemux || Сэмпл
Формат: AVI
Видео: MPEG4, XviD, 704x384 (16/9), 23.976 fps, 1 915 Kbps (0.295 bit/pixel)
Аудио: AC-3, 48.0 KHz, 6 ch, 384 Kbps, CBR

Субтитры: отсутствуют

Подробные технические данные

Format : AVIFormat/Info : Audio Video InterleaveFile size : 1.10 GiBDuration : 1h 8mnOverall bit rate : 2 308 KbpsMovie name : Добрыня Никитич и Змей Горыныч (2006)Writing application : VirtualDubMod 1.5.10.3 | www.virtualdub-fr.org || (build 2550/release)Comment : 02.12.2012
VideoID : 0Format : MPEG-4 VisualFormat profile : Advanced Simple@L5Format settings, BVOP : YesFormat settings, QPel : NoFormat settings, GMC : No warppointsFormat settings, Matrix : CustomCodec ID : XVIDCodec ID/Hint : XviDDuration : 1h 8mnBit rate : 1 915 KbpsWidth : 704 pixelsHeight : 384 pixelsDisplay aspect ratio : 16:9Frame rate : 23.976 fpsColor space : YUVChroma subsampling : 4:2:0Bit depth : 8 bitsScan type : ProgressiveBits/(Pixel*Frame) : 0.295Stream size : 933 MiB (83%)Writing library : XviD 65
AudioID : 1Format : AC-3Format/Info : Audio Coding 3Mode extension : CM (complete main)Codec ID : 2000Duration : 1h 8mnBit rate mode : ConstantBit rate : 384 KbpsChannel(s) : 6 channelsChannel positions : Front: L C R, Side: L R, LFESampling rate : 48.0 KHzBit depth : 16 bitsStream size : 187 MiB (17%)Alignment : Split accross interleavesInterleave, duration : 42 ms (1.00 video frame)Interleave, preload duration : 500 ms

Скриншоты

0 человек читают эту тему: 0 пользователей, 0 скрытых пользователей, 0 гостей

Показать сообщения:    

Текущее время: 23-Авг 09:16

Часовой пояс: UTC - 1


Вы не можете начинать темы
Вы не можете отвечать на сообщения
Вы не можете редактировать свои сообщения
Вы не можете удалять свои сообщения
Вы не можете голосовать в опросах
Вы не можете прикреплять файлы к сообщениям
Вы не можете скачивать файлы

!ВНИМАНИЕ!
Сайт не предоставляет электронные версии произведений, а занимается лишь коллекционированием и каталогизацией ссылок, присылаемых и публикуемых на форуме нашими читателями. Если вы являетесь правообладателем какого-либо представленного материала и не желаете, чтобы ссылка на него находилась в нашем каталоге, свяжитесь с нами, и мы незамедлительно удалим ее. Файлы для обмена на трекере предоставлены пользователями сайта, и администрация не несет ответственности за их содержание. Просьба не заливать файлы, защищенные авторскими правами, а также файлы нелегального содержания!