Важное объявление!
У Нас Все раздачи мультитрекерные, при нуле пиров в релизах, можете смело вставать на закачку!
Статистика раздачи
Размер:     |    Зарегистрирован:     |    Скачан:     |   
Нет
 
     
 
 
Автор Сообщение

HUNTER

Стаж:
5 лет
Сообщений:
67935

Репутация: 101

[+] [-]
Вне форума [Профиль] [ЛС]

Добро пожаловать на Марс / NOVA. Welcome to Mars
Год выпуска: 2005
Страна: США
Жанр: Научно-популярный, Документальный
Продолжительность: 00:53:20
Перевод: Профессиональный (многоголосый)
Русские субтитры: нет
Оригинальная аудиодорожка: нет
Режиссер: Марк Дэвис / Mark DavisОписание: В январе 2004 года марсоходы «Спирит» и «Оппортьюнити» совершили удачную посадку на разных сторонах Марса: Спирит — в районе кратера Гусева, а его брат-близнец — на плато Меридиана.
Миссия Mars Exploration Rover была организована для того, чтобы найти ответ на вопрос, не дающий покоя ученым: существовали ли предпосылки для возникновения жизни на этой планете? После анализа переданных марсоходами фотоснимков и экспериментальных данных можно считать доказанным, что несколько миллиардов лет назад на поверхности Красной планеты существовали обширные соленые водоемы. Именно соленая вода является предпосылкой возникновения жизни на планете. «Спирит» и «Оппортьюнити» впервые обнаружили химически связанную воду в минералах. Такие минералы могут образоваться только на дне морей и океанов. Ученые выяснили, что на Красной планете есть как минимум одно место, где теоретически могла существовать жизнь. А это означает, что продолжив исследования в других районах Марса, можно будет дать более определенный ответ на вопрос, «есть ли жизнь на Марсе». Руководители проекта Mars Exploration Rover уверены: научные данные, переданные «Спиритом» и «Оппортьюнити» с Марса, окажут огромное влияние на будущие исследования не только Красной планеты, но и других планет Солнечной системы.
Качество: HDTVRip
Формат: AVI
Видео: Xvid 640x368 29.97fps 1438kbps
Аудио: Dolby AC3 48000Hz mono 96kbps
Сэмпл: http://sendfile.su/1164724
Превосходит прежний рип по качеству и содержимому изображения.

Сравнение скриншотов

http://screenshotcomparison.com/comparison/146943

MediaInfo

GeneralComplete name : M:\SpaceDust\NOVA. Welcome to Mars (2005).aviFormat : AVIFormat/Info : Audio Video InterleaveFile size : 590 MiBDuration : 53mn 19sOverall bit rate : 1 546 KbpsWriting application : VirtualDubMod 1.5.10.3 (build 2550/release)Writing library : VirtualDub build 35390/release
VideoID : 0Format : MPEG-4 VisualFormat profile : Simple@L3Format settings, BVOP : 2Format settings, QPel : NoFormat settings, GMC : No warppointsFormat settings, Matrix : Default (H.263)Codec ID : XVIDCodec ID/Hint : XviDDuration : 53mn 19sBit rate : 1 438 KbpsWidth : 640 pixelsHeight : 368 pixelsDisplay aspect ratio : 1.739Frame rate : 29.970 fpsColor space : YUVChroma subsampling : 4:2:0Bit depth : 8 bitsScan type : ProgressiveCompression mode : LossyBits/(Pixel*Frame) : 0.204Stream size : 548 MiB (93%)Writing library : XviD 1.0.3 (UTC 2004-12-20)
AudioID : 1Format : AC-3Format/Info : Audio Coding 3Mode extension : CM (complete main)Format settings, Endianness : BigCodec ID : 2000Duration : 53mn 18sBit rate mode : ConstantBit rate : 96.0 KbpsChannel(s) : 1 channelChannel positions : Front: CSampling rate : 48.0 KHzBit depth : 16 bitsCompression mode : LossyStream size : 36.6 MiB (6%)Alignment : Split accross interleavesInterleave, duration : 33 ms (1.00 video frame)Interleave, preload duration : 500 ms

Скриншоты

Документальные фильмы о Марсе

_________________
Показать сообщения:    

Текущее время: Сегодня 08:58

Часовой пояс: GMT



Вы не можете начинать темы
Вы не можете отвечать на сообщения
Вы не можете редактировать свои сообщения
Вы не можете удалять свои сообщения
Вы не можете голосовать в опросах
Вы не можете прикреплять файлы к сообщениям
Вы не можете скачивать файлы