Ивановский Торрент трекер
Яндекс.Погода
 

[Цитировать]
adeei


Добро пожаловать в Нью-Йорк
Welcome to New York
-

  • Год производства: 2014

  • Страна: США

  • Жанр: Драма

  • Продолжительность: 01:45:14

  • Перевод: Профессиональный (многоголосый закадровый) [Лицензия]

  • Субтитры: Отсутствуют-
  • Режиссер: Абель Феррара-
  • В ролях: Жерар Депардьё, Жаклин Биссет, Дрена Де Ниро, Эми Фергюсон, Пол Кальдерон, Пол Хипп, Мария Ди Анджелис, Рональд Гаттмен, Ан Дуонг, Шэнин Ли-
  • Описание: Один из самых влиятельных людей на планете, претендент на пост Президента Франции в одночасье становится жертвой собственных пороков. Он одержим бешеным и необузданным сексуальным голодом. В Нью-Йорке его обвиняют в сексуальных домогательствах.-
  • Качество видео: DVDRip-AVC

  • Исходник: DVD9

  • Формат видео: mkv

  • Видео кодек: H264

  • Аудио кодек: AC3

  • Видео: 1024x576 (16:9), 25.000 fps, 3 258 Kbps, 0.221 bit/pixel

  • Аудио: 48 kHz, AC3 6 ch ~448 kbps avg--

    Скриншоты

    MediaInfo

    General
    Unique ID : 170305222369053507467117635385881869572 (0x801F97BE1C554574BE4F0B071BCD3D04)
    Complete name : D:\Welcome.to.New.York.2014.DVDRip.AVC.falco.mkv
    Format : Matroska
    Format version : Version 2
    File size : 2.72 GiB
    Duration : 1h 45mn
    Overall bit rate : 3 706 Kbps
    Encoded date : UTC 2014-08-11 16:30:39
    Writing application : mkvmerge v6.1.0 ('Old Devil') built on Mar 4 2013 09:10:42
    Writing library : libebml v1.3.0 + libmatroska v1.4.0
    Video
    ID : 1
    Format : AVC
    Format/Info : Advanced Video Codec
    Format profile : High@L4.1
    Format settings, CABAC : Yes
    Format settings, ReFrames : 10 frames
    Codec ID : V_MPEG4/ISO/AVC
    Duration : 1h 45mn
    Bit rate : 3 258 Kbps
    Width : 1 024 pixels
    Height : 576 pixels
    Display aspect ratio : 16:9
    Frame rate : 25.000 fps
    Color space : YUV
    Chroma subsampling : 4:2:0
    Bit depth : 8 bits
    Scan type : Progressive
    Bits/(Pixel*Frame) : 0.221
    Stream size : 2.34 GiB (86%)
    Writing library : x264 core 130 r2273 b3065e6
    Encoding settings : cabac=1 / ref=10 / deblock=1:-3:-3 / analyse=0x3:0x133 / me=umh / subme=11 / psy=1 / psy_rd=1.00:0.10 / mixed_ref=1 / me_range=32 / chroma_me=1 / trellis=2 / 8x8dct=1 / cqm=0 / deadzone=21,11 / fast_pskip=0 / chroma_qp_offset=-3 / threads=6 / lookahead_threads=1 / sliced_threads=0 / nr=0 / decimate=0 / interlaced=0 / bluray_compat=0 / constrained_intra=0 / bframes=8 / b_pyramid=2 / b_adapt=2 / b_bias=0 / direct=3 / weightb=1 / open_gop=0 / weightp=2 / keyint=240 / keyint_min=24 / scenecut=40 / intra_refresh=0 / rc_lookahead=60 / rc=2pass / mbtree=1 / bitrate=3258 / ratetol=1.0 / qcomp=0.70 / qpmin=0 / qpmax=69 / qpstep=4 / cplxblur=20.0 / qblur=0.5 / vbv_maxrate=50000 / vbv_bufsize=62500 / nal_hrd=none / ip_ratio=1.40 / aq=1:1.00
    Default : Yes
    Forced : No
    Audio
    ID : 2
    Format : AC-3
    Format/Info : Audio Coding 3
    Mode extension : CM (complete main)
    Format settings, Endianness : Big
    Codec ID : A_AC3
    Duration : 1h 45mn
    Bit rate mode : Constant
    Bit rate : 448 Kbps
    Channel(s) : 6 channels
    Channel positions : Front: L C R, Side: L R, LFE
    Sampling rate : 48.0 KHz
    Bit depth : 16 bits
    Compression mode : Lossy
    Stream size : 337 MiB (12%)
    Default : Yes
    Forced : No
    -Источник:
Показать сообщения:    

Текущее время: 22-Окт 03:42

Часовой пояс: UTC - 1


Вы не можете начинать темы
Вы не можете отвечать на сообщения
Вы не можете редактировать свои сообщения
Вы не можете удалять свои сообщения
Вы не можете голосовать в опросах
Вы не можете прикреплять файлы к сообщениям
Вы не можете скачивать файлы

!ВНИМАНИЕ!
Сайт не предоставляет электронные версии произведений, а занимается лишь коллекционированием и каталогизацией ссылок, присылаемых и публикуемых на форуме нашими читателями. Если вы являетесь правообладателем какого-либо представленного материала и не желаете, чтобы ссылка на него находилась в нашем каталоге, свяжитесь с нами, и мы незамедлительно удалим ее. Файлы для обмена на трекере предоставлены пользователями сайта, и администрация не несет ответственности за их содержание. Просьба не заливать файлы, защищенные авторскими правами, а также файлы нелегального содержания!