Ивановский Торрент трекер
Яндекс.Погода
 

[Цитировать]
HUNTER

Дни насилия / Дни жестокости / I giorni della violenza / Days of Violence
Страна: Италия
Студия: Concord
Жанр: вестерн
Год выпуска: 1967
Продолжительность: 01:39:54
Перевод: Одноголосый закадровый SATKUR
Cубтитры: русские Каптелов, немецкие, английские.
Оригинальная аудиодорожка: итальянский
Режиссер: Альфонсо Брешия / Alfonso Brescia (as Al Bradley)
В ролях: Питер Ли Лоуренс, Беба Лонкар, Розальба Нери, Андреа Бошич, Луиджи Вануччи, Нелло Пазафини
Описание: Девятнадцатый век. В США в самом разгаре гражданская война. Местные жители захваченных солдатами конфедерации штатов начинают организовывать собственные отряды самообороны, призванные защищать свои семьи от жестокостей и произвола военных. Один из командиров таких отрядов по имени Бутч Спрингфилд спасает двух молодых фермеров, Клелла и Джохса, от рук солдат, которые украли их лошадей. Командир предлагает спасенным парням присоединиться к его отряду, но они отказываются и возвращаются на свое ранчо. Через некоторое время на него нападают конфедераты под командованием Дэна Клиффорда и убивают протестующего Клелла и его жену Лиззи. Когда об этом узнает Джохс, то принимает решение присоединиться к отряду Спрингфилда и отомстить убийцам друга. Проходит два года, в течение которых наш герой безуспешно искал Клиффорда и его подручных. Заканчивается гражданская война, Клиффорд приезжает в родной городок и собирается жениться на дочери крупного фермера по имени Кристина. Тем временем туда же возвращается Джохс и узнает о планах своего врага. Тогда он похищает Кристину и скрывается, после чего Клиффорд и его товарищи бросаются на поиски беглецов…
Хороший вестерн.
Доп. информация: Русская звуковая дорожка и субтитры взяты с этой раздачи http://rutracker.org/forum/viewtopic.php?t=5135095 автору большое спасибо.
При пересборе двд были использованы программы:
VirtualDubMod_1_5_10_2_All_inclusive - извлечение русской дорожки из рипа
PgcDemux - разделение компонентов диска на файлы
Muxman - мультиплексирование и авторинг DVD
VobBlanker - реавторинг DVD

Скрин завершения проекта

Бонусы: Трейлеры, галерея.
Сэмпл: http://sendfile.su/1256528
Тип релиза: DVD9 (Custom)
Контейнер: DVD-Video
Видео: PAL 16:9 (720x576) VBR Auto Letterboxed
Аудио: Russian (Dolby AC3, 192 Кбит/сек, 2 ch)
Аудио 2: Deutsch (Dolby AC3, 192 Кбит/сек, 2 ch)
Аудио 3: Italiano (Dolby AC3, 192 Кбит/сек. 2 ch)
Формат субтитров: softsub (SSA/ASS)

DVDInfo

Title: I giorni della violenza_1967
Size: 6.54 Gb ( 6 855 756,00 KBytes ) - DVD-9
Enabled regions: 1, 2, 3, 4, 5, 6, 7, 8
VTS_01 :
Play Length: 01:39:54
Video: PAL 16:9 (720x576) VBR, Auto Letterboxed
Audio:
Russian, AC3, 2/0 (L,R) ch, 192 kbps, Delay 0 mSec
Deutsch, AC3, 2/0 (L,R) ch, 192 kbps, Delay 0 mSec
Italiano, AC3, 2/0 (L,R) ch, 192 kbps, Delay 0 mSec
Subtitles:
Russian
Deutsch
Deutsch
English
Not specified
Not specified
Not specified
VTS_02 :
Play Length: 00:03:02+00:03:02
Video: PAL 16:9 (720x576) VBR, Auto Letterboxed
Audio:
Deutsch (Dolby AC3, 2 ch)
VTS_03 :
Play Length: 00:00:00
Video: PAL 16:9 (720x576) VBR, Auto Letterboxed
* Menus Information *
VIDEO_TS Menu
Video:
PAL 4:3 (720x576) VBR
Audio:
Not specified (Dolby AC3, 6 ch)
Deutsch Language Unit :
Title Menu
VTS_01 Menu
Video:
PAL 16:9 (720x576) VBR
Auto Letterboxed
Audio:
Not specified (Dolby AC3, 2 ch)
Deutsch Language Unit :
Root Menu
VTS_02 Menu
Video:
PAL 16:9 (720x576) VBR
Auto Letterboxed
Audio:
Not specified (Dolby AC3, 2 ch)
Deutsch Language Unit :
Root Menu
VTS_03 Menu
Video:
NTSC 4:3 (720x480) VBR
Auto Pan&Scan, Auto Letterboxed
Deutsch Language Unit :
Root Menu

MediaInfo

Общее
Полное имя : I:\DVD ГОТОВЫЕ\I giorni della violenza_1967\VIDEO_TS\VTS_01_1.VOB
Формат : MPEG-PS
Размер файла : 1024 Мбайт
Продолжительность : 18 м.
Режим общего битрейта : Переменный
Общий поток : 7876 Кбит/сек
Видео
Идентификатор : 224 (0xE0)
Формат : MPEG Video
Версия формата : Version 2
Профиль формата : Main@Main
Параметр BVOP формата : Да
Параметр матрицы формата : Выборочная
Параметр GOP формата : M=3, N=12
Структура изображения : Frame
Продолжительность : 18 м.
Вид битрейта : Переменный
Битрейт : 7144 Кбит/сек
Максимальный битрейт : 9500 Кбит/сек
Ширина : 720 пикселей
Высота : 576 пикселей
Соотношение сторон : 16:9
Частота кадров : 25,000 кадров/сек
Стандарт вещания : PAL
Цветовое пространство : YUV
Субдискретизация насыщенности : 4:2:0
Битовая глубина : 8 бит
Тип развёртки : Чересстрочная
Порядок развёртки : Верхнее поле первое
Метод сжатия : С потерями
Бит/(Пиксели*Кадры) : 0.689
Временной код первого кадра : 09:59:58:00
Оригинал временного кода : Group of pictures header
GOP, открыто/закрыто : Закрыто
Размер потока : 929 Мбайт (91%)
Аудио #1
Идентификатор : 189 (0xBD)-128 (0x80)
Формат : AC-3
Формат/Информация : Audio Coding 3
Расширение режима : CM (complete main)
Параметр Endianness формата : Big
Режим смешивания : DVD-Video
Продолжительность : 18 м.
Вид битрейта : Постоянный
Битрейт : 192 Кбит/сек
Каналы : 2 канала
Расположение каналов : Front: L R
Частота : 48,0 КГц
Метод сжатия : С потерями
Размер потока : 25,0 Мбайт (2%)
Аудио #2
Идентификатор : 189 (0xBD)-129 (0x81)
Формат : AC-3
Формат/Информация : Audio Coding 3
Расширение режима : CM (complete main)
Параметр Endianness формата : Big
Режим смешивания : DVD-Video
Продолжительность : 18 м.
Вид битрейта : Постоянный
Битрейт : 192 Кбит/сек
Каналы : 2 канала
Расположение каналов : Front: L R
Частота : 48,0 КГц
Метод сжатия : С потерями
Размер потока : 25,0 Мбайт (2%)
Аудио #3
Идентификатор : 189 (0xBD)-130 (0x82)
Формат : AC-3
Формат/Информация : Audio Coding 3
Расширение режима : CM (complete main)
Параметр Endianness формата : Big
Режим смешивания : DVD-Video
Продолжительность : 18 м.
Вид битрейта : Постоянный
Битрейт : 192 Кбит/сек
Каналы : 2 канала
Расположение каналов : Front: L R
Частота : 48,0 КГц
Метод сжатия : С потерями
Размер потока : 25,0 Мбайт (2%)
Текст #1
Идентификатор : 189 (0xBD)-32 (0x20)
Формат : RLE
Формат/Информация : Run-length encoding
Режим смешивания : DVD-Video
Продолжительность : 17 м.
Задержка видео : 7 с. 200 мс.
Текст #2
Идентификатор : 189 (0xBD)-33 (0x21)
Формат : RLE
Формат/Информация : Run-length encoding
Режим смешивания : DVD-Video
Текст #3
Идентификатор : 189 (0xBD)-34 (0x22)
Формат : RLE
Формат/Информация : Run-length encoding
Режим смешивания : DVD-Video
Текст #4
Идентификатор : 189 (0xBD)-37 (0x25)
Формат : RLE
Формат/Информация : Run-length encoding
Режим смешивания : DVD-Video
Текст #5
Идентификатор : 189 (0xBD)-38 (0x26)
Формат : RLE
Формат/Информация : Run-length encoding
Режим смешивания : DVD-Video
Меню

Постеры

Скриншоты меню

Скриншоты

Показать сообщения:    

Текущее время: 17-Окт 12:23

Часовой пояс: UTC - 1


Вы не можете начинать темы
Вы не можете отвечать на сообщения
Вы не можете редактировать свои сообщения
Вы не можете удалять свои сообщения
Вы не можете голосовать в опросах
Вы не можете прикреплять файлы к сообщениям
Вы не можете скачивать файлы

!ВНИМАНИЕ!
Сайт не предоставляет электронные версии произведений, а занимается лишь коллекционированием и каталогизацией ссылок, присылаемых и публикуемых на форуме нашими читателями. Если вы являетесь правообладателем какого-либо представленного материала и не желаете, чтобы ссылка на него находилась в нашем каталоге, свяжитесь с нами, и мы незамедлительно удалим ее. Файлы для обмена на трекере предоставлены пользователями сайта, и администрация не несет ответственности за их содержание. Просьба не заливать файлы, защищенные авторскими правами, а также файлы нелегального содержания!