Важное объявление!
У Нас Все раздачи мультитрекерные, при нуле пиров в релизах, можете смело вставать на закачку!
 
Автор Сообщение

ForZe

Стаж:
4 года 8 месяцев
Сообщений:
182

Репутация: 30

[+] [-]
Вне форума [Профиль] [ЛС]

Дневники Вампира / The Vampire Diaries
Год выпуска: 2011
Страна: США, Alloy Entertainment
Жанр: ужасы, драма
Продолжительность: 22 х 00:41:54
Перевод: Профессиональный Многоголосый закадровый ( LostFilm )
Русские субтитры: нет
Субтитры: отсутствуют
Режиссёр: Маркос Сига
-В ролях: Нина Добрев (Nina Dobrev), Пол Уэсли (Paul Wesley), Йан Сомерхалдер (Ian Somerhalder), Стивен Р. МакКуин (Steven R. McQueen), Катерина Грэхэм (Katerina Graham)-Описание: Елена — «золотая» девочка, она привыкла, что мальчики стоят перед ней на коленях. Стефан — темноволосый красавец, он никогда не смотрит на солнце и прячет глаза за темными очками. Он — единственный, на кого чары Елены не действуют, хотя он и пытается защитить ее от мрачных тайн своего прошлого. Дэймон — его сексуальный и жестокий брат, он всю жизнь посвятил мести Стефану, когда-то предавшему его. Сейчас ему нужна Елена и он пойдет на все, чтобы добиться ее тела. И заполучить ее душу. Дневники вампира: история прекрасной Елены, по воле рока ставшей причиной смертельной схватки братьев-вампиров.-Качество: WEB-DLRip
Формат: AVI
Видео кодек: XviD
Аудио кодек: MP3
Видео: 704x400 (1.76:1), 23.976 fps, 1323 kbps avg, 0.20 bit/pixel
Аудио: 48 kHz, MPEG Layer 3, 2 ch, ~128.00 kbps avg
--Релиз: -- -

MI

General
Complete name : I:\Закачки\The.Vampire.Diaries.S03E01.rus.LostFilm.TV.avi
Format : AVI
Format/Info : Audio Video Interleave
File size : 441 MiB
Duration : 42mn 5s
Overall bit rate : 1 465 Kbps
Writing application : Nandub v1.0rc2
Writing library : Nandub build 1853/release
Video
Format : MPEG-4 Visual
Format profile : Streaming Video@L1
Format settings, BVOP : No
Format settings, QPel : No
Format settings, GMC : No warppoints
Format settings, Matrix : Custom
Codec ID : XVID
Codec ID/Hint : XviD
Duration : 42mn 5s
Bit rate : 1 324 Kbps
Width : 704 pixels
Height : 400 pixels
Display aspect ratio : 16/9
Frame rate : 23.976 fps
Resolution : 24 bits
Colorimetry : 4:2:0
Scan type : Progressive
Bits/(Pixel*Frame) : 0.196
Stream size : 398 MiB (90%)
Writing library : XviD 64
Audio
Format : MPEG Audio
Format version : Version 1
Format profile : Layer 3
Codec ID : 55
Codec ID/Hint : MP3
Duration : 42mn 5s
Bit rate mode : Constant
Bit rate : 128 Kbps
Channel(s) : 2 channels
Sampling rate : 48.0 KHz
Resolution : 16 bits
Video delay : 1ms
Stream size : 38.5 MiB (9%)
Alignment : Aligned on interleaves
Interleave, duration : 24 ms (0.58 video frame)
Interleave, preload duration : 481 ms

Скриншоты


_________________
Отдам инвайты на Dota 2! Если кому нужны пишите в лс
Показать сообщения:    

Текущее время: Сегодня 18:32

Часовой пояс: GMT



Вы не можете начинать темы
Вы не можете отвечать на сообщения
Вы не можете редактировать свои сообщения
Вы не можете удалять свои сообщения
Вы не можете голосовать в опросах
Вы не можете прикреплять файлы к сообщениям
Вы не можете скачивать файлы
Наши партнеры: интернет магазин Ивановского трикотажа textilla.ru