Для вас, милые женщины! (Галина Тырина) [2012, Комплекс силовых и аэробных упражнений, DVD5] :: Ивановский Торрент трекер
Важное объявление!
У Нас Все раздачи мультитрекерные, при нуле пиров в релизах, можете смело вставать на закачку!
Статистика раздачи
Размер:     |    Зарегистрирован:     |    Скачан:     |   
Нет
 
     
 
 
Автор Сообщение

HUNTER

Стаж:
4 года 11 месяцев
Сообщений:
66112

Репутация: 101

[+] [-]
Вне форума [Профиль] [ЛС]

Для вас, милые женщины!-

Год выпуска: 2012
Страна: Россия
Сайт производителя: не известен
Тематика: Комплекс силовых и аэробных упражнений
Тип материала: обучающее видео-Продолжительность: 00:37:01
Автор: Галина Тырина-Язык: Русский - Профессиональный (одноголосый)
Субтитры: нет-Описание: Комплекс силовых и аэробных упражнений для женщин – результат многолетнего опыта работы в качестве тренера и инструктор по здоровью. Предлагаемые упражнения помогут укрепить мышцы, сформировать фигуру, разработать суставы, развить пластичность и гибкость, сформировать правильное дыхание и улучшить работу сердца. Также в комплекс включены специальные упражнения для женщин, позволяющие укрепить внутренние мышцы малого таза и брюшной стенки. Вы почувствуете себя намного лучше уже через месяц регулярных упражнений, стоит только начать!-Качество: DVD5
Формат: DVD video
Видео кодек: MPEG2
Аудио кодек: AC3
Видео: PAL 4:3 (720x576) 25.00fps 9000kbps
Аудио: Dolby AC3 48000Hz stereo 192kbps-

MediaInfo

Код: copyText_writeLink('this.parentNode.parentNode.nextSibling.nextSibling'); General
Complete name : D:\обучение 25,12\Тырина_Галина\VIDEO_TS\VTS_01_1.VOB
Format : MPEG-PS
File size : 1 024 MiB
Duration : 21mn 54s
Overall bit rate mode : Variable
Overall bit rate : 6 533 Kbps
Video
ID : 224 (0xE0)
Format : MPEG Video
Format version : Version 2
Format profile : Main@Main
Format settings, BVOP : Yes
Format settings, Matrix : Custom
Format settings, GOP : M=3, N=12
Duration : 21mn 54s
Bit rate mode : Variable
Bit rate : 6 211 Kbps
Maximum bit rate : 9 000 Kbps
Width : 720 pixels
Height : 576 pixels
Display aspect ratio : 4:3
Frame rate : 25.000 fps
Standard : PAL
Color space : YUV
Chroma subsampling : 4:2:0
Bit depth : 8 bits
Scan type : Interlaced
Scan order : Bottom Field First
Compression mode : Lossy
Bits/(Pixel*Frame) : 0.599
Stream size : 973 MiB (95%)
Color primaries : BT.601 PAL
Transfer characteristics : BT.470 System B, BT.470 System G
Matrix coefficients : BT.601
Audio
ID : 189 (0xBD)-128 (0x80)
Format : AC-3
Format/Info : Audio Coding 3
Mode extension : CM (complete main)
Format settings, Endianness : Big
Muxing mode : DVD-Video
Duration : 21mn 54s
Bit rate mode : Constant
Bit rate : 192 Kbps
Channel(s) : 2 channels
Channel positions : Front: L R
Sampling rate : 48.0 KHz
Bit depth : 16 bits
Compression mode : Lossy
Stream size : 30.1 MiB (3%)
Menu
- -

_________________
Показать сообщения:    

Текущее время: Сегодня 21:06

Часовой пояс: GMT



Вы не можете начинать темы
Вы не можете отвечать на сообщения
Вы не можете редактировать свои сообщения
Вы не можете удалять свои сообщения
Вы не можете голосовать в опросах
Вы не можете прикреплять файлы к сообщениям
Вы не можете скачивать файлы