Длинноногий папочка / Daddy Long Legs (Жан Негулеско / Jean Negulesco) [1955 г., США, мюзикл, мелодрама, BDRemux 1080p] 2x MVO (Первый канал, РЕН ТВ) + Original Eng + Sub Eng :: Ивановский Торрент трекер
Важное объявление!
У Нас Все раздачи мультитрекерные, при нуле пиров в релизах, можете смело вставать на закачку!
 
Автор Сообщение

HUNTER

Стаж:
4 года 11 месяцев
Сообщений:
66052

Репутация: 101

[+] [-]
Вне форума [Профиль] [ЛС]

Длинноногий папочка / Daddy Long Legs-
Год выпуска: 1955
Страна: США
Жанр: мюзикл, мелодрама
Продолжительность: 02:06:43
Перевод:
  • Профессиональный (многоголосый закадровый) Первый канал
  • Профессиональный (многоголосый закадровый) РЕН ТВ
    Оригинальная аудиодорожка: Английская
    Cубтитры: Английские-Режиссер: Жан Негулеско / Jean Negulesco
    В ролях: Фред Астер, Лесли Карон, Терри Мур, Тельма Риттер, Фред Кларк, Шарлотта Остин, Ларри Китинг, Кэтрин Гивни, Келли Браун, Рэй Энтони-Описание:
    Юркая и смышленая Джуди воспитывается в сиротском приюте. Когда она достигает 18-летнего возраста, у нее появляется таинственный опекун, решивший оплатить ее обучение в колледже, при условии, что девушка никогда не будет пытаться увидеть его. Джуди не подозревает, что ее благодетель — миллионер Джервис Пенделтон, влюбившийся в нее с первого взгляда…-За дорожки спасибо olegsa, palmeiras и bornik.
    | | Сэмпл-Качество: BDRemux 1080p (Daddy.Long.Legs.1955.COMPLETE.BLURAY-BDA)
    Контейнер: MKV
    Видео: AVC, 1920x1080 (2.56:1), 23.97 fps, 20000 kbps
    Аудио 1: Русский AC3 2.0, 48 kHz, 192 kbps — Первый канал
    Аудио 2: Русский AC3 2.0, 48 kHz, 192 kbps — РЕН ТВ
    Аудио 3: Английский DTS-HD MA 2.0, 48 kHz, 1697 kbps, 16-bit (DTS Core: 2.0, 48 kHz, 1509 kbps, 16-bit)
    Формат субтитров: softsub (SRT)

    Скриншоты


    MI

    General
    Unique ID : 193796670714944676391974883599160160301 (0x91CBE1916C95565099A765B8A987B02D)
    Complete name : Daddy.Long.Legs.1955.1080p.Remux.mkv
    Format : Matroska
    Format version : Version 2
    File size : 19.5 GiB
    Duration : 2h 6mn
    Overall bit rate mode : Variable
    Overall bit rate : 22.1 Mbps
    Movie name : Daddy Long Legs / Длинноногий папочка (1955) – RuTracker
    Encoded date : UTC 2014-08-04 18:58:21
    Writing application : mkvmerge v7.0.0 ('Where We Going') 64bit built on Jun 9 2014 15:16:27
    Writing library : libebml v1.3.0 + libmatroska v1.4.1
    Attachment : Yes
    Video
    ID : 1
    Format : AVC
    Format/Info : Advanced Video Codec
    Format profile : High@L4.1
    Format settings, CABAC : Yes
    Format settings, ReFrames : 4 frames
    Codec ID : V_MPEG4/ISO/AVC
    Duration : 2h 6mn
    Bit rate mode : Variable
    Maximum bit rate : 32.0 Mbps
    Width : 1 920 pixels
    Height : 1 080 pixels
    Display aspect ratio : 16:9
    Frame rate mode : Constant
    Frame rate : 23.976 fps
    Standard : NTSC
    Color space : YUV
    Chroma subsampling : 4:2:0
    Bit depth : 8 bits
    Scan type : Progressive
    Title : Daddy.Long.Legs.1955.COMPLETE.GER.BLURAY-BDA
    Language : English
    Default : Yes
    Forced : No
    Color primaries : BT.709
    Transfer characteristics : BT.709
    Matrix coefficients : BT.709
    Audio #1
    ID : 2
    Format : AC-3
    Format/Info : Audio Coding 3
    Mode extension : CM (complete main)
    Format settings, Endianness : Big
    Codec ID : A_AC3
    Duration : 2h 6mn
    Bit rate mode : Constant
    Bit rate : 192 Kbps
    Channel(s) : 2 channels
    Channel positions : Front: L R
    Sampling rate : 48.0 KHz
    Bit depth : 16 bits
    Compression mode : Lossy
    Stream size : 174 MiB (1%)
    Title : MVO – Первый канал
    Language : Russian
    Default : Yes
    Forced : No
    Audio #2
    ID : 3
    Format : AC-3
    Format/Info : Audio Coding 3
    Mode extension : CM (complete main)
    Format settings, Endianness : Big
    Codec ID : A_AC3
    Duration : 2h 6mn
    Bit rate mode : Constant
    Bit rate : 192 Kbps
    Channel(s) : 2 channels
    Channel positions : Front: L R
    Sampling rate : 48.0 KHz
    Bit depth : 16 bits
    Compression mode : Lossy
    Stream size : 174 MiB (1%)
    Title : MVO – РЕН ТВ
    Language : Russian
    Default : No
    Forced : No
    Audio #3
    ID : 4
    Format : DTS
    Format/Info : Digital Theater Systems
    Format profile : MA / Core
    Mode : 16
    Format settings, Endianness : Big
    Codec ID : A_DTS
    Duration : 2h 6mn
    Bit rate mode : Variable
    Bit rate : Unknown / 1 509 Kbps
    Channel(s) : 2 channels
    Channel positions : Front: L R
    Sampling rate : 48.0 KHz
    Bit depth : 16 bits
    Compression mode : Lossless / Lossy
    Title : Original
    Language : English
    Default : No
    Forced : No
    Text
    ID : 5
    Format : UTF-8
    Codec ID : S_TEXT/UTF8
    Codec ID/Info : UTF-8 Plain Text
    Language : English
    Default : No
    Forced : No
    Menu
    00:00:00.000 : en:Chapter 01
    00:01:53.822 : en:Chapter 02
    00:08:27.506 : en:Chapter 03
    00:20:04.703 : en:Chapter 04
    00:26:47.564 : en:Chapter 05
    00:35:24.122 : en:Chapter 06
    00:44:24.453 : en:Chapter 07
    00:54:20.590 : en:Chapter 08
    01:03:50.701 : en:Chapter 09
    01:08:42.910 : en:Chapter 10
    01:16:07.187 : en:Chapter 11
    01:25:50.812 : en:Chapter 12
    01:37:23.754 : en:Chapter 13
    01:41:12.357 : en:Chapter 14
    01:53:52.158 : en:Chapter 15
    02:01:41.419 : en:Chapter 16

  • _________________
    Показать сообщения:    

    Текущее время: Сегодня 08:55

    Часовой пояс: GMT



    Вы не можете начинать темы
    Вы не можете отвечать на сообщения
    Вы не можете редактировать свои сообщения
    Вы не можете удалять свои сообщения
    Вы не можете голосовать в опросах
    Вы не можете прикреплять файлы к сообщениям
    Вы не можете скачивать файлы