Ивановский Торрент трекер
Яндекс.Погода
 

[Цитировать]
HUNTER

Длинноногий папочка / Daddy Long Legs- Год выпуска: 1955
Страна: США
Жанр: мюзикл, мелодрама
Продолжительность: 02:06:43
Перевод:
  • Профессиональный (многоголосый закадровый) Первый канал
  • Профессиональный (многоголосый закадровый) РЕН ТВ
Оригинальная аудиодорожка: Английская
Cубтитры: Английские, немецкие-Режиссер: Жан Негулеско / Jean Negulesco
В ролях: Фред Астер, Лесли Карон, Терри Мур, Тельма Риттер, Фред Кларк, Шарлотта Остин, Ларри Китинг, Кэтрин Гивни, Келли Браун, Рэй Энтони-Описание:
Юркая и смышленая Джуди воспитывается в сиротском приюте. Когда она достигает 18-летнего возраста, у нее появляется таинственный опекун, решивший оплатить ее обучение в колледже, при условии, что девушка никогда не будет пытаться увидеть его. Джуди не подозревает, что ее благодетель — миллионер Джервис Пенделтон, влюбившийся в нее с первого взгляда…- | | Сэмпл-Качество: BDRip 720p (SbR)
Контейнер: MKV
Видео: 1280x500 (2.56:1), 23.97 fps, 9728 kbps
Аудио 1: Русский AC3 2.0, 48 kHz, 192 kbps — Первый канал
Аудио 2: Русский AC3 2.0, 48 kHz, 192 kbps — РЕН ТВ
Аудио 3: Английский FLAC 2.0, 48 kHz, 549 kbps
Формат субтитров: softsub (SRT)

Скриншоты

Source | Encode



MI

nfo

Release info
RELEASE NAME..: Daddy.Long.Legs.1955.720p.BluRay.FLAC2.0.x264-SbR
RELEASE SIZE..: 9.09 GiB
RUNTIME.......: 2h:06m:43s
VIDEO CODEC...: x264, 2pass, L4.1
FRAMERATE.....: 23.976 fps
BITRATE.......: 9728 Kbps
RESOLUTION....: 1280x500
AUDIO.........: English FLAC 2.0 @ 549 Kbps
SUBTITLES.....: German(force)+German(full)
CHAPTER.......: Included
SOURCE........: Daddy Long Legs 1955 1080p GER Blu-ray AVC DTS-HD MA 2.0-BDA
RELEASE DATE..: 13.12.2013
ENCODER.......: Delia
x264log
x264 [info]: frame I:906 Avg QP:16.62 size:111198
x264 [info]: frame P:32012 Avg QP:17.67 size: 70380
x264 [info]: frame B:149386 Avg QP:19.14 size: 46142
x264 [info]: consecutive B-frames: 0.6% 0.3% 1.3% 12.7% 14.4% 49.9% 7.9% 3.5% 5.1% 0.8% 1.6% 1.5% 0.6%
encoded 182304 frames, 3.24 fps, 9728.77 kb/s,
General
Unique ID : 190837845153629894732290384744149809686 (0x8F92083473FF6B8D91DD161F74EDFA16)
Complete name : Daddy.Long.Legs.1955.720p.BluRay.x264-SbR.mkv
Format : Matroska
Format version : Version 2
File size : 9.44 GiB
Duration : 2h 6mn
Overall bit rate mode : Variable
Overall bit rate : 10.7 Mbps
Movie name : Daddy Long Legs / Длинноногий папочка (1955) – RuTracker
Encoded date : UTC 2014-03-31 20:27:53
Writing application : mkvmerge v6.1.0 ('Old Devil') built on Mar 2 2013 14:32:37
Writing library : libebml v1.3.0 + libmatroska v1.4.0
Attachment : Yes
Video
ID : 1
Format : AVC
Format/Info : Advanced Video Codec
Format profile : High@L4.1
Format settings, CABAC : Yes
Format settings, ReFrames : 12 frames
Codec ID : V_MPEG4/ISO/AVC
Duration : 2h 6mn
Width : 1 280 pixels
Height : 500 pixels
Display aspect ratio : 2.560
Frame rate mode : Constant
Frame rate : 23.976 fps
Color space : YUV
Chroma subsampling : 4:2:0
Bit depth : 8 bits
Scan type : Progressive
Title : Daddy.Long.Legs.1955.720p.BluRay.FLAC2.0.x264-SbR
Writing library : x264 core 140 r2377kMod 1ca7bb9
Encoding settings : cabac=1 / ref=12 / deblock=1:-3:-3 / analyse=0x3:0x113 / me=esa / subme=10 / psy=1 / fade_compensate=0.00 / psy_rd=1.00:0.00 / mixed_ref=1 / me_range=32 / chroma_me=1 / trellis=2 / 8x8dct=1 / cqm=0 / deadzone=21,11 / fast_pskip=0 / chroma_qp_offset=-2 / threads=6 / lookahead_threads=1 / sliced_threads=0 / nr=0 / decimate=1 / interlaced=0 / bluray_compat=0 / constrained_intra=0 / fgo=0 / bframes=12 / b_pyramid=2 / b_adapt=2 / b_bias=0 / direct=3 / weightb=1 / open_gop=0 / weightp=2 / keyint=250 / keyint_min=23 / scenecut=40 / intra_refresh=0 / rc_lookahead=40 / rc=crf / mbtree=0 / crf=16.0000 / qcomp=0.70 / qpmin=0 / qpmax=69 / qpstep=4 / vbv_maxrate=50000 / vbv_bufsize=62500 / crf_max=0.0 / nal_hrd=none / filler=0 / ip_ratio=1.30 / pb_ratio=1.20 / aq=1:0.80
Language : English
Default : Yes
Forced : No
Color primaries : BT.709
Transfer characteristics : BT.709
Matrix coefficients : BT.709
Audio #1
ID : 2
Format : AC-3
Format/Info : Audio Coding 3
Mode extension : CM (complete main)
Format settings, Endianness : Big
Codec ID : A_AC3
Duration : 2h 6mn
Bit rate mode : Constant
Bit rate : 192 Kbps
Channel(s) : 2 channels
Channel positions : Front: L R
Sampling rate : 48.0 KHz
Bit depth : 16 bits
Compression mode : Lossy
Stream size : 174 MiB (2%)
Title : MVO – Первый канал
Language : Russian
Default : Yes
Forced : No
Audio #2
ID : 3
Format : AC-3
Format/Info : Audio Coding 3
Mode extension : CM (complete main)
Format settings, Endianness : Big
Codec ID : A_AC3
Duration : 2h 6mn
Bit rate mode : Constant
Bit rate : 192 Kbps
Channel(s) : 2 channels
Channel positions : Front: L R
Sampling rate : 48.0 KHz
Bit depth : 16 bits
Compression mode : Lossy
Stream size : 174 MiB (2%)
Title : MVO – РЕН ТВ
Language : Russian
Default : No
Forced : No
Audio #3
ID : 4
Format : FLAC
Format/Info : Free Lossless Audio Codec
Codec ID : A_FLAC
Duration : 2h 6mn
Bit rate mode : Variable
Channel(s) : 2 channels
Sampling rate : 48.0 KHz
Bit depth : 16 bits
Title : Original
Writing library : libFLAC 1.2.1 (UTC 2007-09-17)
Language : English
Default : No
Forced : No
Text #1
ID : 5
Format : UTF-8
Codec ID : S_TEXT/UTF8
Codec ID/Info : UTF-8 Plain Text
Language : English
Default : No
Forced : No
Text #2
ID : 6
Format : UTF-8
Codec ID : S_TEXT/UTF8
Codec ID/Info : UTF-8 Plain Text
Language : German
Default : No
Forced : No
Menu
00:00:00.000 : en:Chapter 01
00:01:53.822 : en:Chapter 02
00:08:27.506 : en:Chapter 03
00:20:04.703 : en:Chapter 04
00:26:47.564 : en:Chapter 05
00:35:24.122 : en:Chapter 06
00:44:24.453 : en:Chapter 07
00:54:20.590 : en:Chapter 08
01:03:50.701 : en:Chapter 09
01:08:42.910 : en:Chapter 10
01:16:07.187 : en:Chapter 11
01:25:50.812 : en:Chapter 12
01:37:23.754 : en:Chapter 13
01:41:12.357 : en:Chapter 14
01:53:52.158 : en:Chapter 15
02:01:41.419 : en:Chapter 16
Показать сообщения:    

Текущее время: 24-Сен 02:19

Часовой пояс: UTC - 1


Вы не можете начинать темы
Вы не можете отвечать на сообщения
Вы не можете редактировать свои сообщения
Вы не можете удалять свои сообщения
Вы не можете голосовать в опросах
Вы не можете прикреплять файлы к сообщениям
Вы не можете скачивать файлы

!ВНИМАНИЕ!
Сайт не предоставляет электронные версии произведений, а занимается лишь коллекционированием и каталогизацией ссылок, присылаемых и публикуемых на форуме нашими читателями. Если вы являетесь правообладателем какого-либо представленного материала и не желаете, чтобы ссылка на него находилась в нашем каталоге, свяжитесь с нами, и мы незамедлительно удалим ее. Файлы для обмена на трекере предоставлены пользователями сайта, и администрация не несет ответственности за их содержание. Просьба не заливать файлы, защищенные авторскими правами, а также файлы нелегального содержания!