Ивановский Торрент трекер
Яндекс.Погода
 

[Цитировать]
HUNTER

Дисциплина: Хентайная Академия / Discipline: The Hentai Academy
Год выпуска: 2003-2004
Страна: Япония
Жанр: Хентай
Цензура: Отсутствует
Продолжительность: (6 эп.), 25 мин.
Перевод: Любительский (двухголосый), текст читали Ancord & Keneretta, перевел SoulEater.-Описание: Перевод в школу Св. Алкадии стал осуществлением мечты для Такуро Хайами. Его поселили в общежитие, где живут 4 девушки, и Саори Отокава, старшая по общежитию, самая сексуальная из них.
Чуть позже Такуро узнаёт, что сексуальным раем управляет ад. Во дворе общежития он сталкивается с властной белокурой девицей. Прежде чем Такуро что-либо понял, «амазонка» в мгновение ока отхлестала парня резиновым хлыстом, популярным у любителей садомазохистских игр.
Когда машина скрылась из вида, лицо Саори исказил справедливый гнев.
— Плевать мне, что она сестра директора! Не прощу её. И ни за что не отдам ей моего дорогого Такуро!
Так в школе назрела женская война – любви и насилия.

Качество: DVDRip
Формат: MKV
Видео кодек: H.264
Видео: MPEG4 Video (H264) 640x480 29.970 fps, 1 546 Kbps
Аудио 1: RU - MVO MPEG Audio Layer 3 44100Hz stereo, 192 Kbps
Аудио 2: JАP - Vorbis 48000Hz stereo, 128 Kbps

Названия эпизодов:

01. Chapter 1 "Beginning"
02. Chapter 2 "Confinement"
03. Chapter 3 "Consummate Sin"
04. Chapter 4 "Buddhist Precepts"
05. Chspter 5 "Infiltration"
06. Chapter 6 "Final Episode"

MI

D:\Discipline_OVA\Discipline_OVA_[01_of_06]_[ru_ja].mkv
General
Unique ID : 250721062560678624262055896906769253636 (0xBC9F1EC5E9D81E298EE0C236245E4504)
Complete name : D:\Discipline_OVA\Discipline_OVA_[01_of_06]_[ru_ja].mkv
Format : Matroska
File size : 369 MiB
Duration : 27mn 48s
Overall bit rate : 1 858 Kbps
Encoded date : UTC 2008-07-03 19:53:28
Writing application : mkvmerge v2.0.2 ('You're My Flame') built on Feb 21 2007 23:40:55
Writing library : libebml v0.7.7 + libmatroska v0.8.1
Cover : Yes
Video #1
ID : 1
Format : AVC
Format/Info : Advanced Video Codec
Format profile : High@L5.1
Format settings, CABAC : Yes
Format settings, ReFrames : 16 frames
Codec ID : V_MPEG4/ISO/AVC
Duration : 27mn 48s
Bit rate : 1 546 Kbps
Width : 640 pixels
Height : 480 pixels
Display aspect ratio : 4:3
Frame rate : 29.970 fps
Color space : YUV
Chroma subsampling : 4:2:0
Bit depth : 8 bits
Scan type : Progressive
Bits/(Pixel*Frame) : 0.168
Stream size : 298 MiB (81%)
Title : discipline - episode 1
Writing library : x264 core 44 svn-408M
Encoding settings : cabac=1 / ref=16 / deblock=1:1:1 / analyse=0x3:0x133 / me=umh / subme=6 / brdo=1 / mixed_ref=1 / me_range=16 / chroma_me=1 / trellis=2 / 8x8dct=1 / cqm=0 / chroma_qp_offset=0 / slices=2 / bframes=3 / b_pyramid=1 / b_adapt=1 / b_bias=0 / direct=2 / wpredb=1 / bime=1 / keyint=250 / keyint_min=25 / scenecut=40 / pass=2 / bitrate=1546 / ratetol=1.0 / rceq='blurCplx^(1-qComp)' / qcomp=0.60 / qpmin=10 / qpmax=51 / qpstep=4 / cplxblur=20.0 / qblur=0.5 / ip_ratio=1.40 / pb_ratio=1.30
Language : Japanese
Audio #2
ID : 2
Format : MPEG Audio
Format version : Version 1
Format profile : Layer 3
Codec ID : A_MPEG/L3
Codec ID/Hint : MP3
Duration : 27mn 48s
Bit rate mode : Constant
Bit rate : 192 Kbps
Channel(s) : 2 channels
Sampling rate : 44.1 KHz
Compression mode : Lossy
Stream size : 38.2 MiB (10%)
Language : Russian
Audio #3
ID : 3
Format : Vorbis
Format settings, Floor : 1
Codec ID : A_VORBIS
Duration : 27mn 48s
Bit rate mode : Constant
Bit rate : 128 Kbps
Channel(s) : 2 channels
Sampling rate : 48.0 KHz
Compression mode : Lossy
Stream size : 25.5 MiB (7%)
Writing library : libVorbis 1.1.1/1.1.2 (UTC 2005-03-04)
Language : Japanese

Скриншоты



Показать сообщения:    

Текущее время: 16-Дек 09:28

Часовой пояс: UTC ± 0


Вы не можете начинать темы
Вы не можете отвечать на сообщения
Вы не можете редактировать свои сообщения
Вы не можете удалять свои сообщения
Вы не можете голосовать в опросах
Вы не можете прикреплять файлы к сообщениям
Вы не можете скачивать файлы

!ВНИМАНИЕ!
Сайт не предоставляет электронные версии произведений, а занимается лишь коллекционированием и каталогизацией ссылок, присылаемых и публикуемых на форуме нашими читателями. Если вы являетесь правообладателем какого-либо представленного материала и не желаете, чтобы ссылка на него находилась в нашем каталоге, свяжитесь с нами, и мы незамедлительно удалим ее. Файлы для обмена на трекере предоставлены пользователями сайта, и администрация не несет ответственности за их содержание. Просьба не заливать файлы, защищенные авторскими правами, а также файлы нелегального содержания!