Дикий Мессия / Savage Messiah (Марио Аццопарди (Аззопарди) / Mario Azzopardi) [2002, Канада, Великобритания, драма, DVD5] Dub + Sub Rus :: Ивановский Торрент трекер
Важное объявление!
У Нас Все раздачи мультитрекерные, при нуле пиров в релизах, можете смело вставать на закачку!
 
Автор Сообщение

HUNTER

Стаж:
4 года 11 месяцев
Сообщений:
66051

Репутация: 101

[+] [-]
Вне форума [Профиль] [ЛС]

Дикий Мессия / Savage Messiah
Страна: Канада, Великобритания
Студия: Astral Films, Bernard Zukerman Production, Corus See
Жанр: драма
Год выпуска: 2002
Продолжительность: 01:31:15
Перевод: Профессиональный (дублированный) «Фортуна-фильм»
Cубтитры: русские
Оригинальная аудиодорожка: нет
Режиссер: Марио Аццопарди (Аззопарди) / Mario Azzopardi
В ролях: Полли Уокер, Люк Пикар, Изабель Блэ, Паскаль Монпети, Изабель Сир, Жюли Ла Рошель, Домини Блайт, Элизабет Робертсон, Стив Эдамс, Луис Феррейра, Джон Данн-Хилл, Кира Аццопарди, Жан-Франсуа Бланшар, Натали Жерар
Описание: Пола Джексон, работающая в отделе помощи детям, по долгу службы сталкивается с Роком Терьо, харизматичным и жестоким лидером секты, который вместе с большим числом женщин и детей живет в лесу. За внешним благополучием этой коммуны кроются разврат и увечья, члены общины подвергаются моральному и физическому нажиму со стороны Моисея (так называют Рока его последователи). Умный и осторожный, «мессия» умеет обходить закон, и Поле придется приложить немало усилий, чтобы наказать подонка.
Сценарий основан на реальных событиях, поэтому время от времени возникает неуютное ощущение избытка правдоподобности. Чем «документальнее» кино, тем меньше, как известно, оно развлекает...
Бонусы: нет
Меню: нет

Сэмпл: http://multi-up.com/972810
Тип релиза: DVD5
Контейнер: DVD-Video
Видео: PAL 16:9 (720x576(0.596)) MPEG Video, 25,000 кадр/сек, 6178 Кбит/сек
Аудио: Russian (Dolby AC3, 6ch) 448 Кбит/сек, 48,0 КГц
Формат субтитров: prerendered (DVD/IDX+SUB)
Доп. информация
Издание «RUSCICO»
DVDInfo
Title:
Size: 4.36 Gb ( 4 569 696 KBytes ) - DVD-5
Enabled regions: 1, 2, 3, 4, 5, 6, 7, 8
VTS_01 :
Play Length: 01:31:15
Video: PAL 16:9 (720x576) VBR, Auto Letterboxed
Audio:
Russian (Dolby AC3, 6 ch)
Subtitles:
Russian
Menu Video:
PAL 4:3 (720x576) VBR
Auto Pan&Scan, Auto Letterboxed
Menu Language Unit :
Chapter (PTT) Menu
MediaInfo
General
Complete name : D:\odds\Дикий Мессия\VIDEO_TS\VTS_01_1.VOB
Format : MPEG-PS
File size : 1 024 MiB
Duration : 21mn 10s
Overall bit rate : 6 761 Kbps
Video
ID : 224 (0xE0)
Format : MPEG Video
Format version : Version 2
Format profile : Main@Main
Format settings, BVOP : Yes
Format settings, Matrix : Default
Format settings, GOP : M=2, N=4
Duration : 21mn 10s
Bit rate mode : Constant
Bit rate : 6 178 Kbps
Nominal bit rate : 8 000 Kbps
Width : 720 pixels
Height : 576 pixels
Display aspect ratio : 16:9
Frame rate : 25.000 fps
Standard : PAL
Color space : YUV
Chroma subsampling : 4:2:0
Bit depth : 8 bits
Scan type : Interlaced
Scan order : Top Field First
Bits/(Pixel*Frame) : 0.596
Stream size : 936 MiB (91%)
Audio
ID : 128 (0x80)
Format : AC-3
Format/Info : Audio Coding 3
Mode extension : CM (complete main)
Duration : 21mn 10s
Bit rate mode : Constant
Bit rate : 448 Kbps
Channel(s) : 6 channels
Channel positions : Front: L C R, Side: L R, LFE
Sampling rate : 48.0 KHz
Video delay : 80ms
Stream size : 67.8 MiB (7%)
Menu
СкриншотыПостер

_________________
Показать сообщения:    

Текущее время: Сегодня 07:12

Часовой пояс: GMT



Вы не можете начинать темы
Вы не можете отвечать на сообщения
Вы не можете редактировать свои сообщения
Вы не можете удалять свои сообщения
Вы не можете голосовать в опросах
Вы не можете прикреплять файлы к сообщениям
Вы не можете скачивать файлы