Важное объявление!
У Нас Все раздачи мультитрекерные, при нуле пиров в релизах, можете смело вставать на закачку!
 
Автор Сообщение

HUNTER

Стаж:
4 года 7 месяцев
Сообщений:
61439

Репутация: 101

[+] [-]
Вне форума [Профиль] [ЛС]

Дикий Борнео / Wild Borneo
Дата/Год выпуска: 1998
Страна: США
Жанр: Документальный
Продолжительность: 00:41:17
Перевод: Профессиональный (дублированный)
Доп. инфо о переводе: Студия "Велес" \ Олег Белов
Описание: Борнео. Третий по величине остров на нашей планете. Над ним возвышается гора Кинабалу, мощное горное образование высотой почти 4000 метров. Борнео –загадочный тропический остров, на котором собрана воедино экзотика дикой природы.Здесь обезьяны живут на деревьях, а змеи падают прямо с неба. Теплый утренний туман,который окутывает заросли тропического леса, скрывает ошеломляющее богатство живой природы.
Доп. информация: Тот же самый фильм, что в этой раздаче только под другим названием, вписан в формат 16:9, переозвучен и немного укорочен каналом Nat Geo Wild HD.
Сэмпл
качество: HDTVRip-AVC
формат: MKV
Видео: H.264, 1024x576 (16:9), 2300 Kbps, 25 fps
Аудио: AC3, 192 Кбит/с, 48 kHz, 2 ch

MediaInfo

GeneralUnique ID : 284616449376001233923179578416877710845 (0xD61F225E54247DF4E287D47F297EADFD)Complete name : D:\Видео\Флора и фауна\Wild Borneo.1998.mkvFormat : MatroskaFormat version : Version 4 / Version 2File size : 737 MiBDuration : 41mn 17sOverall bit rate : 2 495 KbpsEncoded date : UTC 2015-04-21 11:15:04Writing application : Lavf56.30.100Writing library : Lavf56.30.100
VideoID : 1Format : AVCFormat/Info : Advanced Video CodecFormat profile : High@L4.1Format settings, CABAC : YesFormat settings, ReFrames : 4 framesCodec ID : V_MPEG4/ISO/AVCDuration : 41mn 17sBit rate : 2 300 KbpsWidth : 1 024 pixelsHeight : 576 pixelsDisplay aspect ratio : 16:9Frame rate mode : ConstantFrame rate : 25.000 fpsColor space : YUVChroma subsampling : 4:2:0Bit depth : 8 bitsScan type : ProgressiveBits/(Pixel*Frame) : 0.156Stream size : 665 MiB (90%)Writing library : x264 core 146 r2538Encoding settings : cabac=1 / ref=4 / deblock=1:-2:-2 / analyse=0x3:0x113 / me=umh / subme=9 / psy=1 / psy_rd=1.00:0.00 / mixed_ref=0 / me_range=16 / chroma_me=1 / trellis=1 / 8x8dct=1 / cqm=0 / deadzone=21,11 / fast_pskip=1 / chroma_qp_offset=-2 / threads=6 / lookahead_threads=1 / sliced_threads=0 / nr=0 / decimate=1 / interlaced=0 / bluray_compat=0 / constrained_intra=0 / bframes=7 / b_pyramid=2 / b_adapt=2 / b_bias=0 / direct=3 / weightb=0 / open_gop=0 / weightp=2 / keyint=250 / keyint_min=25 / scenecut=40 / intra_refresh=0 / rc_lookahead=40 / rc=2pass / mbtree=1 / bitrate=2300 / ratetol=1.0 / qcomp=0.60 / qpmin=10 / qpmax=69 / qpstep=4 / cplxblur=20.0 / qblur=0.5 / ip_ratio=1.40 / aq=2:1.00Default : YesForced : No
AudioID : 2Format : AC-3Format/Info : Audio Coding 3Mode extension : CM (complete main)Format settings, Endianness : BigCodec ID : A_AC3Duration : 41mn 17sBit rate mode : ConstantBit rate : 192 KbpsChannel(s) : 2 channelsChannel positions : Front: L RSampling rate : 48.0 KHzBit depth : 16 bitsCompression mode : LossyDelay relative to video : 5msStream size : 56.7 MiB (8%)Writing library : Lavc56.34.100 ac3_fixedLanguage : EnglishDefault : YesForced : No

Скриншоты


_________________
Показать сообщения:    

Текущее время: Сегодня 05:12

Часовой пояс: GMT



Вы не можете начинать темы
Вы не можете отвечать на сообщения
Вы не можете редактировать свои сообщения
Вы не можете удалять свои сообщения
Вы не можете голосовать в опросах
Вы не можете прикреплять файлы к сообщениям
Вы не можете скачивать файлы
Наши партнеры: интернет магазин Ивановского трикотажа textilla.ru