Ивановский Торрент трекер
Яндекс.Погода
 

[Цитировать]
HUNTER

Дикие улицы / Savage Streets
Страна: США
Жанр: криминал, драма
Год выпуска: 1984
Продолжительность: 01:32:48
Перевод 1: Авторский (одноголосый закадровый) Гаврилов (со вставками Иванова)
Перевод 2: Авторский (одноголосый закадровый) Иванов
Cубтитры: нет
Оригинальная аудиодорожка: английский
-
Режиссер: Дэнни Стейнманн / Danny Steinmann
В ролях: Линда Блэр, Джон Вернон, Роберт Драйер, Джонни Венокур, Сэл Ланди, Скотт Майер, Дебра Бли, Лиза Фриман, Марсия Карр, Луиза Лешин
-
Описание: После того, как юная Хезер была жестоко изнасилована бандой хулиганов, её старшая сестра Бренда превратилась из скромной школьницы в крутую мстительницу.

Тип релиза: BDRemux 1080p
Контейнер: MKV
Видео: MPEG-4 AVC / NTSC 16:9 / 1920x1080 (1,78:1) / 23272 kbps / 23,976 fps / High@L4.1
Аудио 1: Russian / AC3 / 48 kHz / 2 Ch / 192 kbps / 16 bit / Гаврилов
Аудио 2: Russian / AC3 / 48 kHz / 2 Ch / 192 kbps / 16 bit / Иванов
Аудио 3: English / DTS-HD Master Audio / 5.1 Ch / 48 kHz / 3632 kbps / 24-bit (DTS Core: 5.1 Ch / 48 kHz / 1510 kbps / 24-bit) / Original
Аудио 4: English / DTS-HD Master Audio / 2 Ch / 48 kHz / 1857 kbps / 24-bit (DTS Core: 2 Ch / 48 kHz / 1510 kbps / 24-bit) / Music
Навигация по главам: есть

MediaInfo

Общее
Уникальный идентификатор : 175161373489240657394892192896017200222 (0x83C6DA7A685BBFDFB4A194AD8EC3745E)
Полное имя : F:\Savage Streets.1984.BDRemux.1080p.mkv
Формат : Matroska
Версия формата : Version 4 / Version 2
Размер файла : 18,9 Гбайт
Продолжительность : 1 ч. 32 м.
Режим общего битрейта : Переменный
Общий поток : 29,1 Мбит/сек
Дата кодирования : UTC 2014-07-06 05:24:20
Программа кодирования : mkvmerge v7.0.0 ('Where We Going') 64bit built on Jun 9 2014 15:16:27
Библиотека кодирования : libebml v1.3.0 + libmatroska v1.4.1
DURATION : 01:32:48.022000000
NUMBER_OF_FRAMES : 522002
NUMBER_OF_BYTES : 1292317928
_STATISTICS_WRITING_APP : mkvmerge v7.0.0 ('Where We Going') 64bit built on Jun 9 2014 15:16:27
_STATISTICS_WRITING_DATE_UTC : 2014-07-06 05:24:20
_STATISTICS_TAGS : BPS DURATION NUMBER_OF_FRAMES NUMBER_OF_BYTES
Видео
Идентификатор : 1
Формат : AVC
Формат/Информация : Advanced Video Codec
Профиль формата : High@L4.1
Параметр CABAC формата : Да
Параметр ReFrames формата : 3 кадра
Параметр GOP формата : M=3, N=12
Идентификатор кодека : V_MPEG4/ISO/AVC
Продолжительность : 1 ч. 32 м.
Вид битрейта : Переменный
Максимальный битрейт : 35,0 Мбит/сек
Ширина : 1920 пикселей
Высота : 1080 пикселей
Соотношение сторон : 16:9
Режим частоты кадров : Постоянный
Частота кадров : 23,976 кадра/сек
Стандарт вещания : NTSC
Цветовое пространство : YUV
Субдискретизация насыщенности : 4:2:0
Битовая глубина : 8 бит
Тип развёртки : Прогрессивная
Язык : English
Default : Да
Forced : Нет
Основные цвета : BT.709
Характеристики трансфера : BT.709
Коэффициенты матрицы : BT.709
Аудио #1
Идентификатор : 2
Формат : AC-3
Формат/Информация : Audio Coding 3
Расширение режима : CM (complete main)
Параметр Endianness формата : Big
Идентификатор кодека : A_AC3
Продолжительность : 1 ч. 32 м.
Вид битрейта : Постоянный
Битрейт : 192 Кбит/сек
Каналы : 2 канала
Расположение каналов : Front: L R
Частота : 48,0 КГц
Битовая глубина : 16 бит
Метод сжатия : С потерями
Размер потока : 127 Мбайт (1%)
Заголовок : AVO / Андрей Гаврилов
Язык : Russian
Default : Да
Forced : Нет
Аудио #2
Идентификатор : 3
Формат : AC-3
Формат/Информация : Audio Coding 3
Расширение режима : CM (complete main)
Параметр Endianness формата : Big
Идентификатор кодека : A_AC3
Продолжительность : 1 ч. 32 м.
Вид битрейта : Постоянный
Битрейт : 192 Кбит/сек
Каналы : 2 канала
Расположение каналов : Front: L R
Частота : 48,0 КГц
Битовая глубина : 16 бит
Метод сжатия : С потерями
Размер потока : 127 Мбайт (1%)
Заголовок : AVO / Михаил Иванов
Язык : Russian
Default : Нет
Forced : Нет
Аудио #3
Идентификатор : 4
Формат : DTS
Формат/Информация : Digital Theater Systems
Профиль формата : MA / Core
Режим : 16
Параметр Endianness формата : Big
Идентификатор кодека : A_DTS
Продолжительность : 1 ч. 32 м.
Вид битрейта : Переменный
Битрейт : Неизвестно / 1509 Кбит/сек
Каналы : 6 каналов
Расположение каналов : Front: L C R, Side: L R, LFE
Частота : 48,0 КГц
Битовая глубина : 24 бит
Метод сжатия : Без потерь / Lossy
Заголовок : Original
Язык : English
Default : Нет
Forced : Нет
Аудио #4
Идентификатор : 5
Формат : DTS
Формат/Информация : Digital Theater Systems
Профиль формата : MA / Core
Режим : 16
Параметр Endianness формата : Big
Идентификатор кодека : A_DTS
Продолжительность : 1 ч. 32 м.
Вид битрейта : Переменный
Битрейт : Неизвестно / 1509 Кбит/сек
Каналы : 2 канала
Расположение каналов : Front: L R
Частота : 48,0 КГц
Битовая глубина : 24 бит
Метод сжатия : Без потерь / Lossy
Заголовок : MUSIC
Язык : English
Default : Нет
Forced : Нет
Меню
00:00:00.000 : en:
00:07:40.460 : en:
00:14:42.882 : en:
00:20:37.236 : en:
00:29:12.751 : en:
00:38:00.278 : en:
00:44:44.682 : en:
00:54:17.254 : en:
01:00:31.628 : en:
01:08:32.108 : en:
01:15:50.546 : en:
01:29:57.392 : en:


Показать сообщения:    

Текущее время: 16-Дек 13:08

Часовой пояс: UTC ± 0


Вы не можете начинать темы
Вы не можете отвечать на сообщения
Вы не можете редактировать свои сообщения
Вы не можете удалять свои сообщения
Вы не можете голосовать в опросах
Вы не можете прикреплять файлы к сообщениям
Вы не можете скачивать файлы

!ВНИМАНИЕ!
Сайт не предоставляет электронные версии произведений, а занимается лишь коллекционированием и каталогизацией ссылок, присылаемых и публикуемых на форуме нашими читателями. Если вы являетесь правообладателем какого-либо представленного материала и не желаете, чтобы ссылка на него находилась в нашем каталоге, свяжитесь с нами, и мы незамедлительно удалим ее. Файлы для обмена на трекере предоставлены пользователями сайта, и администрация не несет ответственности за их содержание. Просьба не заливать файлы, защищенные авторскими правами, а также файлы нелегального содержания!