Важное объявление!
У Нас Все раздачи мультитрекерные, при нуле пиров в релизах, можете смело вставать на закачку!
Статистика раздачи
Размер:     |    Зарегистрирован:     |    Скачан:     |   
Нет
 
     
 
 
Автор Сообщение

HUNTER

Стаж:
5 лет 1 месяц
Сообщений:
68449

Репутация: 101

[+] [-]
Вне форума [Профиль] [ЛС]

Дикая река / Wild River
Страна: США
Жанр: драма
Год выпуска: 1960
Продолжительность: 01:49:54
Перевод: Одноголосый закадровый, Никита Севастьянов
Cубтитры: русские (Mantisby), английские
Оригинальная аудиодорожка: английский-Режиссер: Элиа Казан / Elia Kazan
В ролях: Монтгомери Клифт, Ли Ремик, Барбара Лоден, Джо Ван Флит, Элберт Сэлми, Джэй Флиппен, Джеймс Уэстерфилд, Фрэнк Овертон, Малкольм Аттербери
Описание: По романам "Грязь на звездах" Уильяма Брэдфорда Хьюи и "Бухта Данбар" Бордена Дила.
Река Теннесси, разливаясь каждый год по весне, регулярно разрушает всё в округе и уносит человеческие жизни. Правительство намерено обуздать ее, построив несколько дамб. Во имя блага ряд земель решено затопить. Но один остров не сдается: хозяйствующая на нем 80-летняя Элла Гарт отказывается уходить со своей земли. Молодой идеалист-администратор из Управления долины Теннесси Чак Гловер приезжает, чтобы уговорить её...
IMDb || КиноПоиск-Тип релиза: BDRemux 1080p [Wild River 1960 1080p GBR Blu-ray AVC LPCM 1.0-ESiR]
Контейнер: MKV
Видео: MPEG-4 AVC Video, 1920x1080 at 23.976 fps, 34995 kbps
Аудио#1: Russian: 48 kHz, AC3, 2.0 ch, 192 kbps
Аудио#2: English: 48 kHz, FLAC, 1.0 ch, 573 kbps
Аудио#3: English: 48 kHz, AC3, 2.0 ch, 192 kbps |Commentary
Формат субтитров: softsub (SRT)
Сэмпл

MediaInfo

General
Unique ID : 210678525756972443462628193359381537573 (0x9E7F3548A0DD48C793198346358A2325)
Complete name : I:\Дикая река\Wild.River.1960.Eureka.BDRemux. rutracker.mkv
Format : Matroska
Format version : Version 2
File size : 27.6 GiB
Duration : 1h 49mn
Overall bit rate mode : Variable
Overall bit rate : 36.0 Mbps
Movie name : Release for RuTracker
Writing application : mkvmerge v5.0.1 ('Es ist Sommer') built on Nov 6 2011 16:23:40
Writing library : libebml v1.2.2 + libmatroska v1.3.0
Video
ID : 1
Format : AVC
Format/Info : Advanced Video Codec
Format profile : High@L4.1
Format settings, CABAC : Yes
Format settings, ReFrames : 3 frames
Codec ID : V_MPEG4/ISO/AVC
Duration : 1h 49mn
Bit rate mode : Variable
Nominal bit rate : 35.0 Mbps
Maximum bit rate : 38.0 Mbps
Width : 1 920 pixels
Height : 1 080 pixels
Display aspect ratio : 16:9
Frame rate mode : Constant
Frame rate : 23.976 fps
Color space : YUV
Chroma subsampling : 4:2:0
Bit depth : 8 bits
Scan type : Progressive
Bits/(Pixel*Frame) : 0.704
Title : Wild.River.1960.Eureka.BDRemux. rutracker
Writing library : x264 core 128 r2216 198a7ea
Encoding settings : cabac=1 / ref=4 / deblock=0:-1:-1 / analyse=0x3:0x133 / me=umh / subme=9 / psy=1 / psy_rd=1.00:0.15 / mixed_ref=1 / me_range=24 / chroma_me=1 / trellis=2 / 8x8dct=1 / cqm=0 / deadzone=21,11 / fast_pskip=1 / chroma_qp_offset=-3 / threads=12 / lookahead_threads=2 / sliced_threads=0 / slices=4 / nr=0 / decimate=1 / interlaced=0 / bluray_compat=1 / constrained_intra=0 / bframes=3 / b_pyramid=1 / b_adapt=2 / b_bias=0 / direct=3 / weightb=1 / open_gop=1 / weightp=1 / keyint=24 / keyint_min=1 / scenecut=40 / intra_refresh=0 / rc_lookahead=24 / rc=2pass / mbtree=0 / bitrate=35000 / ratetol=1.0 / qcomp=0.00 / qpmin=0 / qpmax=69 / qpstep=4 / cplxblur=20.0 / qblur=0.5 / vbv_maxrate=38000 / vbv_bufsize=28500 / nal_hrd=vbr / ip_ratio=1.40 / pb_ratio=1.30 / aq=0
Language : English
Default : Yes
Forced : No
Color primaries : BT.709
Transfer characteristics : BT.709
Matrix coefficients : BT.709
Audio #1
ID : 2
Format : AC-3
Format/Info : Audio Coding 3
Mode extension : CM (complete main)
Format settings, Endianness : Big
Codec ID : A_AC3
Duration : 1h 49mn
Bit rate mode : Constant
Bit rate : 192 Kbps
Channel(s) : 2 channels
Channel positions : Front: L R
Sampling rate : 48.0 KHz
Bit depth : 16 bits
Compression mode : Lossy
Stream size : 151 MiB (1%)
Language : Russian
Default : Yes
Forced : No
Audio #2
ID : 3
Format : FLAC
Format/Info : Free Lossless Audio Codec
Codec ID : A_FLAC
Duration : 1h 49mn
Bit rate mode : Variable
Channel(s) : 1 channel
Sampling rate : 48.0 KHz
Bit depth : 24 bits
Writing library : libFLAC 20080709 (UTC 2008-07-09)
Language : English
Default : No
Forced : No
Audio #3
ID : 4
Format : AC-3
Format/Info : Audio Coding 3
Mode extension : CM (complete main)
Format settings, Endianness : Big
Codec ID : A_AC3
Duration : 1h 49mn
Bit rate mode : Constant
Bit rate : 192 Kbps
Channel(s) : 2 channels
Channel positions : Front: L R
Sampling rate : 48.0 KHz
Bit depth : 16 bits
Compression mode : Lossy
Stream size : 151 MiB (1%)
Title : commentary
Language : English
Default : No
Forced : No
Text #1
ID : 5
Format : UTF-8
Codec ID : S_TEXT/UTF8
Codec ID/Info : UTF-8 Plain Text
Language : Russian
Default : No
Forced : No
Text #2
ID : 6
Format : UTF-8
Codec ID : S_TEXT/UTF8
Codec ID/Info : UTF-8 Plain Text
Language : English
Default : No
Forced : No
Menu
00:00:00.000 : en:Inherited
00:08:02.815 : en:"TVA keep out"
00:20:50.249 : en:Against nature
00:32:15.224 : en:Carol
00:47:55.914 : en:Pay scales
00:58:54.322 : en:Migration
01:10:45.324 : en:Four dollars
01:19:35.103 : en:"Getting awful human"
01:33:30.688 : en:"Just having some fun"
01:39:48.941 : en:"See that he gets it"

Скриншоты


_________________
Показать сообщения:    

Текущее время: Сегодня 04:46

Часовой пояс: GMT



Вы не можете начинать темы
Вы не можете отвечать на сообщения
Вы не можете редактировать свои сообщения
Вы не можете удалять свои сообщения
Вы не можете голосовать в опросах
Вы не можете прикреплять файлы к сообщениям
Вы не можете скачивать файлы