Ивановский Торрент трекер
Яндекс.Погода
 

[Цитировать]
HUNTER

Дикая любовь / Сумасшедшая любовь / Mad Love
Страна: США
Студия: Touchstone Pictures
Жанр: мелодрама, драма
Год выпуска: 1995
Продолжительность: 01:36:16
Перевод: Профессиональный (многоголосый закадровый)
Cубтитры: английские
Оригинальная аудиодорожка: английский
Режиссер: Антония Бёрд / Antonia Bird
В ролях: Крис О' Доннелл, Дрю Бэрримор, Мэттью Лиллард, Ричард Чайм, Роберт Надир, Джоан Аллен, Джуд Чикколелла, Эми Сакасиц, Т. Дж. Лоузер, Кевин Данн, Лив Шрайбер и др.
Описание: Со времён Ромео и Джульетты поэты называют любовь безумием. Для некоторых это - не просто красивые слова. Ничто на свете не может разлучить Мэтта и Кейси, преданных друг другу всем сердцем - кроме болезненной тяги девушки к самоубийству.
После неудачной попытки умереть родители прячут её в психиатрическую клинику, но дикой страсти нет никаких преград. Мэтт похищает возлюбленную, чтобы увезти её на край света.
Но очень скоро романтическое путешествие становится смертельно опасным...
II Сэмпл II IMDB II
Доп. информация:
За многоголоску спасибо Ivan Dobriy
Тип релиза: WEB-DL 720p
Контейнер: MKV
Видео: AVC / 1280x718 / 16:9 / 23.976fps / Bit rate 3995Kbps
Аудио 1: AC3 / 48.0 KHz / 2ch. / 192kbps / rus / mvo
Аудио 2: AC3 / 48.0 KHz / 6ch. / 384kbps / eng
Формат субтитров: softsub (SRT)

MediaInfo

Общее
Уникальный идентификатор : 220216083892244271840543149188089546359 (0xA5AC1334890F8C34AD04E51B8F9E8677)
Полное имя : H:\!_Torrent\Mad.Love.1995.WEB-DL.720p_by_vedigo.mkv
Формат : Matroska
Версия формата : Version 4 / Version 2
Размер файла : 3,14 Гбайт
Продолжительность : 1 ч. 36 м.
Общий поток : 4664 Кбит/сек
Название фильма : Mad.Love.1995.WEB-DL.720p_by_vedigo
Дата кодирования : UTC 2015-09-16 02:54:23
Программа кодирования : mkvmerge v8.3.0 ('Over the Horizon') 64bit
Библиотека кодирования : libebml v1.3.1 + libmatroska v1.4.2
DURATION : 01:31:58.177000000
NUMBER_OF_FRAMES : 1025
NUMBER_OF_BYTES : 35447
_STATISTICS_WRITING_APP : mkvmerge v8.3.0 ('Over the Horizon') 64bit
_STATISTICS_WRITING_DATE_UTC : 2015-09-16 02:54:23
_STATISTICS_TAGS : BPS DURATION NUMBER_OF_FRAMES NUMBER_OF_BYTES
Видео
Идентификатор : 1
Формат : AVC
Формат/Информация : Advanced Video Codec
Профиль формата : High@L3.1
Параметр CABAC формата : Нет
Параметр ReFrames формата : 2 кадра
Идентификатор кодека : V_MPEG4/ISO/AVC
Продолжительность : 1 ч. 36 м.
Битрейт : 3995 Кбит/сек
Ширина : 1280 пикселей
Высота : 718 пикселей
Соотношение сторон : 16:9
Режим частоты кадров : Постоянный
Частота кадров : 23,976 кадра/сек
Цветовое пространство : YUV
Субдискретизация насыщенности : 4:2:0
Битовая глубина : 8 бит
Тип развёртки : Прогрессивная
Бит/(Пиксели*Кадры) : 0.181
Размер потока : 2,69 Гбайт (86%)
Заголовок : Mad.Love.1995.WEB-DL.720p_by_vedigo
Default : Нет
Forced : Нет
Цветовой диапазон : Limited
Основные цвета : BT.709
Характеристики трансфера : BT.709
Коэффициенты матрицы : BT.709
Аудио #1
Идентификатор : 2
Формат : AC-3
Формат/Информация : Audio Coding 3
Расширение режима : CM (complete main)
Параметр Endianness формата : Big
Идентификатор кодека : A_AC3
Продолжительность : 1 ч. 36 м.
Вид битрейта : Постоянный
Битрейт : 192 Кбит/сек
Каналы : 2 канала
Расположение каналов : Front: L R
Частота : 48,0 КГц
Метод сжатия : С потерями
Размер потока : 132 Мбайт (4%)
Заголовок : MVO
Язык : Russian
Default : Да
Forced : Нет
Аудио #2
Идентификатор : 3
Формат : AC-3
Формат/Информация : Audio Coding 3
Расширение режима : CM (complete main)
Параметр Endianness формата : Big
Идентификатор кодека : A_AC3
Продолжительность : 1 ч. 36 м.
Вид битрейта : Постоянный
Битрейт : 384 Кбит/сек
Каналы : 6 каналов
Расположение каналов : Front: L C R, Side: L R, LFE
Частота : 48,0 КГц
Метод сжатия : С потерями
Размер потока : 264 Мбайт (8%)
Заголовок : original
Язык : English
Default : Нет
Forced : Нет
Текст
Идентификатор : 4
Формат : UTF-8
Идентификатор кодека : S_TEXT/UTF8
Идентификатор кодека/Информация : UTF-8 Plain Text
Заголовок : subtitle eng
Язык : English
Default : Нет
Forced : Нет

Скриншоты


Показать сообщения:    

Текущее время: 19-Окт 00:57

Часовой пояс: UTC - 1


Вы не можете начинать темы
Вы не можете отвечать на сообщения
Вы не можете редактировать свои сообщения
Вы не можете удалять свои сообщения
Вы не можете голосовать в опросах
Вы не можете прикреплять файлы к сообщениям
Вы не можете скачивать файлы

!ВНИМАНИЕ!
Сайт не предоставляет электронные версии произведений, а занимается лишь коллекционированием и каталогизацией ссылок, присылаемых и публикуемых на форуме нашими читателями. Если вы являетесь правообладателем какого-либо представленного материала и не желаете, чтобы ссылка на него находилась в нашем каталоге, свяжитесь с нами, и мы незамедлительно удалим ее. Файлы для обмена на трекере предоставлены пользователями сайта, и администрация не несет ответственности за их содержание. Просьба не заливать файлы, защищенные авторскими правами, а также файлы нелегального содержания!