Важное объявление!
У Нас Все раздачи мультитрекерные, при нуле пиров в релизах, можете смело вставать на закачку!
 
Автор Сообщение

HUNTER

Стаж:
4 года 9 месяцев
Сообщений:
65057

Репутация: 101

[+] [-]
Вне форума [Профиль] [ЛС]

Диджей iZ / Dj iZ
Страна: США
Жанр: Мультфильм
Продолжительность: 01:18:48
Год выпуска: 2007
Перевод: Любительский (дублированный)
Русские субтитры: нет
Описание: У одной семьи есть маленький робот по имени iZ. Загрузив все песни с радио, он превращается в помешанного диджея, а члены этой семьи - в рок звезд.
Качество: SATRip
Формат: AVI
Видео: 640x480 (1.33:1), 25 fps, XviD MPEG-4 ~1794 kbps avg, 0.23 bit/pixel
Аудио: 48 kHz, MPEG Layer 3, 1 ch, ~96.00 kbps avg
Субтитры: отсутствуют
Подробные технические данные
ОбщееПолное имя : F:\Раритет\Диджей iZ.aviФормат : AVIФормат/Информация : Audio Video InterleaveРазмер файла : 1,05 ГбайтПродолжительность : 1 ч. 18 м.Общий поток : 1900 Кбит/секБиблиотека кодирования : VirtualDub build 30091/release
ВидеоИдентификатор : 0Формат : MPEG-4 VisualПрофиль формата : Advanced Simple@L5Параметр BVOP формата : 2Параметр QPel формата : НетПараметр GMC формата : Без точки переходаПараметр матрицы формата : Default (MPEG)Режим смешивания : Сжатый битовый потокИдентификатор кодека : XVIDИдентификатор кодека/Подсказка : XviDПродолжительность : 1 ч. 18 м.Битрейт : 1794 Кбит/секШирина : 640 пикселейВысота : 480 пикселейСоотношение сторон : 4:3Частота кадров : 25,000 кадров/секЦветовое пространство : YUVСубдискретизация насыщенности : 4:2:0Битовая глубина : 8 битТип развёртки : ПрогрессивнаяМетод сжатия : С потерямиБит/(Пиксели*Кадры) : 0.234Размер потока : 1011 Мбайт (94%)Библиотека кодирования : XviD 64
АудиоИдентификатор : 1Формат : MPEG AudioВерсия формата : Version 1Профиль формата : Layer 3Идентификатор кодека : 55Идентификатор кодека/Подсказка : MP3Продолжительность : 1 ч. 18 м.Вид битрейта : ПостоянныйБитрейт : 96,0 Кбит/секКаналы : 1 каналЧастота : 48,0 КГцМетод сжатия : С потерямиРазмер потока : 54,1 Мбайт (5%)Выравнивание : Разделение по промежуткамПродолжительность промежутка : 40 мс. (1,00 видеокадр)Время предзагрузки промежутка : 500 мс.
Скриншоты

_________________
Показать сообщения:    

Текущее время: Сегодня 10:28

Часовой пояс: GMT



Вы не можете начинать темы
Вы не можете отвечать на сообщения
Вы не можете редактировать свои сообщения
Вы не можете удалять свои сообщения
Вы не можете голосовать в опросах
Вы не можете прикреплять файлы к сообщениям
Вы не можете скачивать файлы