Важное объявление!
У Нас Все раздачи мультитрекерные, при нуле пиров в релизах, можете смело вставать на закачку!
 
Автор Сообщение

HUNTER

Стаж:
4 года 7 месяцев
Сообщений:
61487

Репутация: 101

[+] [-]
Вне форума [Профиль] [ЛС]

Диверсанты
-
Год выпуска: 2013
Страна: Россия, "Централ Партнершип"
Жанр: Военный, драма, документальный
Продолжительность: 4 х 00:45:00
Перевод: Не требуется
Субтитры: Нет-Режиссер: Олег Бобало-Яремчук-Описание: Рассказ о выполнении разведчиками конкретных и реальных заданий в тылу противника, о судьбах этих героев и об исторических обстоятельствах, в которых происходили описываемые события. Проект сделан в жанре документальной драмы с реконструкцией событий. По характеру съемки, монтажа, использования музыки, раскрытия характера героев, применения компьютерной графики - это фактически художественный фильм, вставленный в документальный формат. Исторически-документальные пояснения основаны на кадрах уникальной кинохроники.-Качество: HDTVRip
Формат: .avi
Видео кодек: XviD
Аудио кодек: AC3
Видео: 720x400 (1.80:1), 25 fps, XviD MPEG-4 ~1592 kbps avg, 0.22 bit/pixel
Аудио: 48 kHz, AC3 Dolby Digital, 2/0 (L,R) ch, ~192.00 kbps avg-Rip by Дрек-

MI:

Код: copyText_writeLink('this.parentNode.parentNode.nextSibling.nextSibling'); Общее
Полное имя : D:\Торренты\Диверсанты_SatRip_by_Дрек_R.G Сериалы\Диверсанты_01_SatRip_by_Дрек_R.G Сериалы.avi
Формат : AVI
Формат/Информация : Audio Video Interleave
Размер файла : 553 Мбайт
Продолжительность : 43 м.
Общий поток : 1794 Кбит/сек
Программа кодирования : VirtualDubModRus 1.5.10.2 (build 2542/release)
Библиотека кодирования : VirtualDubMod build 2542/release
Видео
Идентификатор : 0
Формат : MPEG-4 Visual
Профиль формата : Advanced Simple@L5
Параметр BVOP формата : 2
Параметр QPel формата : Нет
Параметр GMC формата : Без точки перехода
Параметр матрицы формата : Выборочная
Режим смешивания : Сжатый битовый поток
Идентификатор кодека : XVID
Идентификатор кодека/Подсказка : XviD
Продолжительность : 43 м.
Битрейт : 1592 Кбит/сек
Ширина : 720 пикселей
Высота : 400 пикселей
Соотношение сторон : 16:9
Частота кадров : 25,000 кадров/сек
Цветовое пространство : YUV
Субдискретизация насыщенности : 4:2:0
Битовая глубина : 8 бит
Тип развёртки : Прогрессивная
Метод сжатия : С потерями
Бит/(Пиксели*Кадры) : 0.221
Размер потока : 490 Мбайт (89%)
Библиотека кодирования : XviD 64
Аудио
Идентификатор : 1
Формат : AC-3
Формат/Информация : Audio Coding 3
Расширение режима : CM (complete main)
Идентификатор кодека : 2000
Продолжительность : 43 м.
Вид битрейта : Постоянный
Битрейт : 192 Кбит/сек
Каналы : 2 канала
Расположение каналов : Front: L R
Частота : 48,0 КГц
Битовая глубина : 16 бит
Метод сжатия : С потерями
Размер потока : 59,1 Мбайт (11%)
Выравнивание : Разделение по промежуткам
Продолжительность промежутка : 40 мс. (1,00 видеокадр)
Время предзагрузки промежутка : 500 мс.
-

Скриншоты:



_________________
Показать сообщения:    

Текущее время: Сегодня 00:08

Часовой пояс: GMT



Вы не можете начинать темы
Вы не можете отвечать на сообщения
Вы не можете редактировать свои сообщения
Вы не можете удалять свои сообщения
Вы не можете голосовать в опросах
Вы не можете прикреплять файлы к сообщениям
Вы не можете скачивать файлы
Наши партнеры: интернет магазин Ивановского трикотажа textilla.ru