Ивановский Торрент трекер
Яндекс.Погода
 

[Цитировать]
HUNTER

-Дивергент, глава 2: Инсургент
Insurgent

Год выпуска: 2015
Страна: США (A Lionsgate Company, Summit Entertainment, Red Wagon Entertainment, A Mandeville Films)
Жанр: Фантастика, Триллер, Приключения
Продолжительность: 01:58:59
Перевод: Профессиональный дублированный - "чистый звук"
Режиссер: Роберт Швентке / Robert Schwentke-Роли исполняли (дублировали):

Tris - Шейлин Вудли (Лина Иванова)
Four - Тео Джеймс (Дмитрий Поляновский)
Jeanine - Кейт Уинслет (Марианна Шульц)
Eric - Джай Кортни (Илья Хвостиков)
Caleb - Энсел Элгорт (Николай Быстров)
Peter - Майлз Теллер (Андрей Вальц)
Christina - Зои Кравиц (Вероника Саркисова)
Max - Мекхай Файфер (Александр Носков)
Evelyn - Наоми Уоттс (Людмила Шувалова)
Johanna - Октавия Спенсер (Анастасия Лапина)
Marcus - Рэй Стивенсон (Владислав Копп)
Andrew - Тони Голдуин
Natalie - Эшли Джадд (Ольга Плетнёва)
Tori - Мэгги Кью (Татьяна Шитова)
Marlene - Сьюки Уотерхаус
Jack Kang - Дэниэл Дэ Ким (Алексей Мясников)
-Описание: В новой главе антиутопии об обществе, где все расставлено по полочкам, а любая индивидуальность подлежит искоренению, Трис должна найти способ борьбы со страшной системой, уничтожающей ее близких. Кто из них на очереди? Она узнает все больше страшных подробностей, стоящих за кажущимся порядком, и уже не может не видеть, что в ее мире пора что-то менять. Но главное в этой борьбе — справиться с расколом, который враг порождает в ее собственной душе.-Доп. инфо.: Рип не мой. Выкладываю временно - для нетерпеливых. Параметры кодирования - Low Quality ("быстрорип").
Чёрные полосы обрезаны, т.ч. на некоторой технике будут вытянутые лица.
Автозапуска 3Д нет, так что 3Д включать ручками.

Знаете ли вы, что...

  • В отличие от первого фильма «Дивергент, глава 2: Инсургент» (2015) снимался в Атланте, а не в Чикаго.
  • Шейлин Вудли отказалась пользоваться париком в «Инсургенте». Она просто сделала себе короткую прическу. В книге ее персонаж, Трис, тоже подстригает себе волосы, но не настолько коротко, как это показано в фильме.
  • Во избежание утечки информации во время съемок проект носил название «Минерал» (Mineral).
  • Режиссером этого фильма должен был стать Нил Бёргер, но он отказался из-за несогласованности графиков работы над «Инсургентом» и «Дивергентом» (2014).
  • Персонаж Эдварда (Бен Лэмб) должен был остаться в фильме, но актер покинул проект. В итоге на эту роль взяли Джонни Уэстона, а персонажа переименовали в Эдгара.
  • Наоми Уоттс на самом деле натуральная блондинка. Для своей роли в этом фильме она покрасила волосы в каштановый цвет.
  • Показанного в трейлере куба не было в книге.
Премьера: 11 марта 2015 (19 марта 2015)
Релиз на Blu-Ray (DVD) (Россия): 11 августа 2015
Бюджет: $110 000 000
Кассовые сборы: $295 238 201

. .
-Качество: BDRip (by SPRiNTER)
Контейнер: MKV
Формат 3D: Half SideBySide / Горизонтальная анаморфная стереопара
Порядок ракурсов: левый ракурс первый-Видео: AVC / 23,976 fps / 1920х1080p / ~8.5 Mbps
Аудио:
#1 - Русский / AC3 / 48 KHz / 2 ch / 256 Kbps (Дубляж - "чистый звук") [реально - моно]
#2 - Английский / AC3 / 48 KHz / 5.1 ch / 640 Kbps (Original - BD 3D)
Субтитры Отсутствуют

MediaInfo

General
Unique ID : 220803997460914904310602516131353361522 (0xA61D4D9503D4C208BA855AC476DA7C72)
Complete name : E:\Insurgent(2015)3D-halfSBS(SPRiNTER)ClearSound.mkv
Format : Matroska
Format version : Version 2
File size : 7.86 GiB
Duration : 1h 58mn
Overall bit rate : 9 456 Kbps
Movie name : Дивергент, глава 2: Инсургент / Insurgent (2015) в 3Д
Encoded date : UTC 2015-07-24 09:52:10
Writing application : mkvmerge v5.8.0 ('No Sleep / Pillow') built on Sep 2 2012 15:37:04
Writing library : libebml v1.2.3 + libmatroska v1.3.0
Video
ID : 1
Format : AVC
Format/Info : Advanced Video Codec
Format profile : High@L4.1
Format settings, CABAC : Yes
Format settings, ReFrames : 5 frames
Codec ID : V_MPEG4/ISO/AVC
Duration : 1h 58mn
Bit rate : 8 562 Kbps
Width : 1 920 pixels
Height : 800 pixels
Display aspect ratio : 2.40:1
Frame rate mode : Constant
Frame rate : 23.976 fps
Color space : YUV
Chroma subsampling : 4:2:0
Bit depth : 8 bits
Scan type : Progressive
Bits/(Pixel*Frame) : 0.232
Stream size : 6.96 GiB (89%)
Title : Low Quality
Writing library : x264 core 146 r2538 121396c
Encoding settings : cabac=1 / ref=5 / deblock=1:0:0 / analyse=0x3:0x133 / me=umh / subme=7 / psy=1 / psy_rd=1.00:0.00 / mixed_ref=1 / me_range=16 / chroma_me=1 / trellis=1 / 8x8dct=1 / cqm=0 / deadzone=21,11 / fast_pskip=0 / chroma_qp_offset=-2 / threads=18 / lookahead_threads=3 / sliced_threads=0 / nr=0 / decimate=1 / interlaced=0 / bluray_compat=0 / constrained_intra=0 / bframes=3 / b_pyramid=2 / b_adapt=1 / b_bias=0 / direct=1 / weightb=1 / open_gop=0 / weightp=2 / keyint=250 / keyint_min=23 / scenecut=40 / intra_refresh=0 / rc_lookahead=40 / rc=2pass / mbtree=1 / bitrate=8562 / ratetol=1.0 / qcomp=0.60 / qpmin=0 / qpmax=69 / qpstep=4 / cplxblur=20.0 / qblur=0.5 / ip_ratio=1.40 / aq=1:1.00
Language : English
Default : Yes
Forced : No
Audio #1
ID : 2
Format : AC-3
Format/Info : Audio Coding 3
Mode extension : CM (complete main)
Format settings, Endianness : Big
Codec ID : A_AC3
Duration : 1h 58mn
Bit rate mode : Constant
Bit rate : 256 Kbps
Channel(s) : 2 channels
Channel positions : Front: L R
Sampling rate : 48.0 KHz
Bit depth : 16 bits
Compression mode : Lossy
Stream size : 218 MiB (3%)
Title : Дубляж - "Чистый звук"
Language : Russian
Default : Yes
Forced : No
Audio #2
ID : 3
Format : AC-3
Format/Info : Audio Coding 3
Mode extension : CM (complete main)
Format settings, Endianness : Big
Codec ID : A_AC3
Duration : 1h 58mn
Bit rate mode : Constant
Bit rate : 640 Kbps
Channel(s) : 6 channels
Channel positions : Front: L C R, Side: L R, LFE
Sampling rate : 48.0 KHz
Bit depth : 16 bits
Compression mode : Lossy
Stream size : 545 MiB (7%)
Title : Original
Language : English
Default : No
Forced : No
Menu
00:00:00.000 : en:00:00:00.000
00:06:10.870 : en:00:06:10.870
00:13:34.981 : en:00:13:34.981
00:19:34.590 : en:00:19:34.590
00:26:39.014 : en:00:26:39.014
00:34:22.644 : en:00:34:22.644
00:41:13.429 : en:00:41:13.429
00:46:34.291 : en:00:46:34.291
00:53:09.686 : en:00:53:09.686
00:59:29.941 : en:00:59:29.941
01:05:59.247 : en:01:05:59.247
01:13:34.493 : en:01:13:34.493
01:22:57.514 : en:01:22:57.514
01:32:04.519 : en:01:32:04.519
01:39:08.943 : en:01:39:08.943
01:46:38.225 : en:01:46:38.225

Для оценки 3Д - Анимированные скрины















Показать сообщения:    

Текущее время: 17-Окт 14:23

Часовой пояс: UTC - 1


Вы не можете начинать темы
Вы не можете отвечать на сообщения
Вы не можете редактировать свои сообщения
Вы не можете удалять свои сообщения
Вы не можете голосовать в опросах
Вы не можете прикреплять файлы к сообщениям
Вы не можете скачивать файлы

!ВНИМАНИЕ!
Сайт не предоставляет электронные версии произведений, а занимается лишь коллекционированием и каталогизацией ссылок, присылаемых и публикуемых на форуме нашими читателями. Если вы являетесь правообладателем какого-либо представленного материала и не желаете, чтобы ссылка на него находилась в нашем каталоге, свяжитесь с нами, и мы незамедлительно удалим ее. Файлы для обмена на трекере предоставлены пользователями сайта, и администрация не несет ответственности за их содержание. Просьба не заливать файлы, защищенные авторскими правами, а также файлы нелегального содержания!