Джон Кеннеди: Пороховой дым / JFK: The Smoking Gun (Малкольм МакДональд / Malcolm Macdonald) [2013, Документальный, HDTVRip ] :: Ивановский Торрент трекер
Важное объявление!
У Нас Все раздачи мультитрекерные, при нуле пиров в релизах, можете смело вставать на закачку!
Статистика раздачи
Размер:     |    Зарегистрирован:     |    Скачан:     |   
Нет
 
     
 
 
Автор Сообщение

HUNTER

Стаж:
4 года 11 месяцев
Сообщений:
66052

Репутация: 101

[+] [-]
Вне форума [Профиль] [ЛС]

Джон Кеннеди: Пороховой дым / JFK: The Smoking Gun
Год выпуска: 2013
Страна: Канада,Muse Entertainment Enterprises
Жанр: Документальный
Продолжительность: 01:25:00
Перевод: Профессиональный (дублированный)
Русские субтитры: нет
Режиссер: Малкольм МакДональд / Malcolm Macdonald
Описание: Этот документальный фильм основан на свидетельствах взятых под присягой, интервью, письменных показаниях, рассказах первых лиц. Этот документальный фильм расскажет в первую очередь о том, как на самом деле произошло убийство Президента Америки - Кеннеди. Над расследованием этого дела на протяжении долгих четырех лет работал австралийский детектив , имя которого - Колин МакЛарен. Сможет ли нам Колин предоставить неопровержимые доказательства? Кто на самом деле готовил убийство?? Кто был исполнителем, ведь в этом деле прозвучало только имя одного обвиняемого, но дураку понятно, что такое не мог спланировать один человек.
качество: HDTVRip
формат: AVI
Видео:XviD. 720x400 (16:9) 25.00fps : 1145 Кбит/сек
Аудио: Русский AC3, 48.0 KHz, 2 ch, 192 Кбит/с
Релиз

MediaInfo

Format : AVI
Format/Info : Audio Video Interleave
File size : 812 MiB
Duration : 1h 24mn
Overall bit rate : 1 347 Kbps
Writing application : VirtualDubMod 1.5.10.3 | www.virtualdub-fr.org || (build 2550/release)
Writing library : VirtualDubMod build 2550/release
Video
ID : 0
Format : MPEG-4 Visual
Format profile : Advanced Simple@L5
Format settings, BVOP : 2
Format settings, QPel : No
Format settings, GMC : No warppoints
Format settings, Matrix : Default (H.263)
Codec ID : XVID
Codec ID/Hint : XviD
Duration : 1h 24mn
Bit rate : 1 145 Kbps
Width : 720 pixels
Height : 400 pixels
Display aspect ratio : 16:9
Frame rate : 25.000 fps
Color space : YUV
Chroma subsampling : 4:2:0
Bit depth : 8 bits
Scan type : Progressive
Compression mode : Lossy
Bits/(Pixel*Frame) : 0.159
Stream size : 691 MiB (85%)
Writing library : XviD 1.2.1 (UTC 2008-12-04)
Audio
ID : 1
Format : AC-3
Format/Info : Audio Coding 3
Mode extension : CM (complete main)
Format settings, Endianness : Big
Codec ID : 2000
Duration : 1h 24mn
Bit rate mode : Constant
Bit rate : 192 Kbps
Channel count : 2 channels
Channel positions : Front: L R
Sampling rate : 48.0 KHz
Bit depth : 16 bits
Compression mode : Lossy
Stream size : 116 MiB (14%)
Alignment : Split accross interleaves
Interleave, duration : 40 ms (1.00 video frame)
Interleave, preload duration : 500 ms

Скриншоты

Если вы скачали данный релиз и хотите выложить его на другом ресурсе -
пожалуйста, указывайте первоисточник ,имейте уважение, к другим!

_________________
Показать сообщения:    

Текущее время: Сегодня 15:53

Часовой пояс: GMT



Вы не можете начинать темы
Вы не можете отвечать на сообщения
Вы не можете редактировать свои сообщения
Вы не можете удалять свои сообщения
Вы не можете голосовать в опросах
Вы не можете прикреплять файлы к сообщениям
Вы не можете скачивать файлы