Ивановский Торрент трекер
Яндекс.Погода
 

[Цитировать]
HUNTER

Джон и Мэри / John and Mary
Страна: США
Жанр: лирическая драма
Год выпуска: 1969
Продолжительность: 01:28:34
Перевод: Профессиональный (многоголосый закадровый)
Cубтитры: нет
Оригинальная аудиодорожка: нет
Режиссер: Питер Йейтс / Peter Yates
В ролях: Дастин Хоффман / Dustin Hoffman (as John), Миа Фэрроу / Mia Farrow (as Mary), Майкл Толан / Michael Tolan (as James), Санни Гриффин / Sunny Griffin (as Ruth), Стенли Бек / Stanley Beck (as Stanley), Тайн Дейли / Tyne Daly (as Hilary), Аликс Илайас / Alix Elias (as Jane), Джули Гарфилд / Julie Garfield (as Fran), Марвин Ликтермен / Marvin Lichterman (as Dean), Мэриан Мерсер / Marian Mercer (as Mags Elliot), Сьюзан Тэйлор / Susan Taylor (as Minnie)...
Описание: Джон - дизайнер, Мэри - сотрудница художественной галереи. Они знакомятся в манхэттенском баре, потом идут к нему домой и занимаются любовью. Утром Мэри внимательно рассматривает квартиру своего любовника, чтобы понять, соединяет ли их что-либо, кроме ночи, проведенной вместе. Когда она принимает душ, Джон исследует ее вещи, чтобы найти ответ на тот же самый вопрос. Они не знают: стоит им продолжать свои отношения или не стоит? Если не стоит, то как расстаться? Если стоит, то что им, Джону и Мэри, делать дальше? Может быть, для начала назвать друг другу свои имена, чего оба не удосужились сделать за первые сутки знакомства?..
Сэмпл: http://multi-up.com/951403
Тип релиза: HDTV 1080i
Контейнер: TS
Видео: AVC, 1920x1080 (16/9), 25.000 fps, 12.3 Mbps (0.238 bit/pixel)
Аудио: MP2, 48.0 KHz, 2 ch, 192 Kbps, CBR (Russian)

MediaInfo

Общее
Идентификатор : 3 (0x3)
Полное имя : K:\МОИ РАЗДАЧИ\Джон и Мэри.TS
Формат : MPEG-TS
Размер файла : 8,33 Гбайт
Продолжительность : 1 ч. 28 м.
Режим общего битрейта : Переменный
Общий поток : 13,5 Мбит/сек
Видео
Идентификатор : 2141 (0x85D)
Идентификатор меню : 21004 (0x520C)
Формат : AVC
Формат/Информация : Advanced Video Codec
Профиль формата : Main@L4.0
Параметр CABAC формата : Да
Параметр ReFrames формата : 3 кадра
Идентификатор кодека : 27
Продолжительность : 1 ч. 28 м.
Битрейт : 12,6 Мбит/сек
Ширина : 1920 пикселей
Высота : 1080 пикселей
Соотношение сторон : 16:9
Частота кадров : 25,000 кадров/сек
Стандарт вещания : Component
Цветовое пространство : YUV
Субдискретизация насыщенности : 4:2:0
Битовая глубина : 8 бит
Тип развёртки : Чересстрочная
Порядок развёртки : Верхнее поле первое
Бит/(Пиксели*Кадры) : 0.243
Размер потока : 7,80 Гбайт (94%)
Основные цвета : BT.709
Характеристики трансфера : BT.709
Коэффициенты матрицы : BT.709
Аудио
Идентификатор : 2142 (0x85E)
Идентификатор меню : 21004 (0x520C)
Формат : MPEG Audio
Версия формата : Version 1
Профиль формата : Layer 2
Идентификатор кодека : 4
Продолжительность : 1 ч. 28 м.
Вид битрейта : Постоянный
Битрейт : 192 Кбит/сек
Каналы : 2 канала
Частота : 48,0 КГц
Метод сжатия : С потерями
Задержка видео : -10 мс.
Размер потока : 122 Мбайт (1%)
Язык : Russian

Скриншоты


Показать сообщения:    

Текущее время: 25-Сен 01:46

Часовой пояс: UTC - 1


Вы не можете начинать темы
Вы не можете отвечать на сообщения
Вы не можете редактировать свои сообщения
Вы не можете удалять свои сообщения
Вы не можете голосовать в опросах
Вы не можете прикреплять файлы к сообщениям
Вы не можете скачивать файлы

!ВНИМАНИЕ!
Сайт не предоставляет электронные версии произведений, а занимается лишь коллекционированием и каталогизацией ссылок, присылаемых и публикуемых на форуме нашими читателями. Если вы являетесь правообладателем какого-либо представленного материала и не желаете, чтобы ссылка на него находилась в нашем каталоге, свяжитесь с нами, и мы незамедлительно удалим ее. Файлы для обмена на трекере предоставлены пользователями сайта, и администрация не несет ответственности за их содержание. Просьба не заливать файлы, защищенные авторскими правами, а также файлы нелегального содержания!