Ивановский Торрент трекер
Яндекс.Погода
 

[Цитировать]
HUNTER

Джолин / Jolene
Страна: США
Студия: Next Turn Productions
Жанр: драма
Год выпуска: 2008
Продолжительность: 02:00:54
Перевод: Любительский (двухголосый закадровый) RG Victory Films
Cубтитры: русские (Langolyer), английские
Оригинальная аудиодорожка: английский
Режиссер: Дэн Айрлэнд / Dan Ireland
В ролях: Джессика Честейн, Майкл Вартан, Дермот Малруни, Чазз Пальминтери, Руперт Френд, Дениз Ричардс, Тереза Расселл, Фрэнсис Фишер и др.
Описание: Сирота-подросток проводит десять лет, путешествуя по стране, познавая жизнь, любовь и разлуку. Основано на новелле Эдгара Лоуренса Доктороу, "Джолин: Жизнь"
II Сэмпл II IMDB II
Доп. информация:
За двухголосый перевод спасибо VICTORY.F
За русские субтитры спасибо Langolyer
Тип релиза: BDRemux 1080p
Контейнер: MKV
Видео: AVC / 1920x1080 / 16:9 / 23.976fps / Bit rate / 34600Kbps / High@L4.1
Аудио 1: AC3 / 48.0 KHz / 2ch. / 192kbps / Rus / DVO / RG Victory Films
Аудио 2: DTS-HD MA / 48.0 KHz / 6ch. / 2814kbps / 24bit (DTS Core 48.0 KHz / 6ch. / 1509kbps / 24bit) Eng
Формат субтитров: softsub (SRT)

MediaInfo

Общее
Уникальный идентификатор : 208896701012212745153983556922892725838 (0x9D280A8A87E4D09AA6454418CBC9AE4E)
Полное имя : D:\_Torrent\temp\Jolene.2008.BDRemux.1080p.by_vedigo.mkv
Формат : Matroska
Версия формата : Version 4 / Version 2
Размер файла : 31,8 Гбайт
Продолжительность : 2 ч. 1 м.
Режим общего битрейта : Переменный
Общий поток : 37,6 Мбит/сек
Название фильма : Jolene.2008.BDRemux.1080p.by_vedigo
Дата кодирования : UTC 2016-07-29 06:14:29
Программа кодирования : mkvmerge v9.3.1 ('Mask Machine') 64bit
Библиотека кодирования : libebml v1.3.4 + libmatroska v1.4.5
Видео
Идентификатор : 1
Формат : AVC
Формат/Информация : Advanced Video Codec
Профиль формата : High@L4.1
Параметр CABAC формата : Да
Параметр ReFrames формата : 2 кадра
Параметр GOP формата : M=1, N=10
Идентификатор кодека : V_MPEG4/ISO/AVC
Продолжительность : 2 ч. 0 м.
Вид битрейта : Переменный
Битрейт : 34,6 Мбит/сек
Ширина : 1920 пикселей
Высота : 1080 пикселей
Соотношение сторон : 16:9
Режим частоты кадров : Постоянный
Частота кадров : 23,976 (24000/1001) кадра/сек
Цветовое пространство : YUV
Субдискретизация насыщенности : 4:2:0
Битовая глубина : 8 бит
Тип развёртки : Прогрессивная
Бит/(Пиксели*Кадры) : 0.697
Размер потока : 29,3 Гбайт (92%)
Заголовок : Jolene.2008.BDRemux.1080p.by_vedigo
Default : Да
Forced : Нет
Аудио #1
Идентификатор : 2
Формат : AC-3
Формат/Информация : Audio Coding 3
Расширение режима : CM (complete main)
Параметр Endianness формата : Big
Идентификатор кодека : A_AC3
Продолжительность : 2 ч. 1 м.
Вид битрейта : Постоянный
Битрейт : 192 Кбит/сек
Каналы : 2 канала
Расположение каналов : Front: L R
Частота : 48,0 КГц
Частота кадров : 31,250 кадров/сек (1536 spf)
Метод сжатия : С потерями
Размер потока : 166 Мбайт (1%)
Заголовок : DVO @ RG Victory Films
Язык : Russian
Default : Да
Forced : Нет
Аудио #2
Идентификатор : 3
Формат : DTS
Формат/Информация : Digital Theater Systems
Профиль формата : MA / Core
Режим : 16
Параметр Endianness формата : Big
Идентификатор кодека : A_DTS
Продолжительность : 2 ч. 1 м.
Вид битрейта : Переменный / Постоянный
Битрейт : 2814 Кбит/сек / 1509 Кбит/сек
Каналы : 6 каналов
Расположение каналов : Front: L C R, Side: L R, LFE
Частота : 48,0 КГц
Частота кадров : 93,750 кадра/сек (512 spf)
Битовая глубина : 24 бит
Метод сжатия : Без потерь / Lossy
Размер потока : 2,38 Гбайт (7%)
Заголовок : Original
Язык : English
Default : Нет
Forced : Нет
Текст #1
Идентификатор : 4
Формат : UTF-8
Идентификатор кодека : S_TEXT/UTF8
Идентификатор кодека/Информация : UTF-8 Plain Text
Продолжительность : 1 ч. 51 м.
Битрейт : 90 бит/сек
Count of elements : 1375
Размер потока : 73,8 Кбайт (0%)
Заголовок : Subtitle rus @ Langolyer
Язык : Russian
Default : Нет
Forced : Нет
Текст #2
Идентификатор : 5
Формат : UTF-8
Идентификатор кодека : S_TEXT/UTF8
Идентификатор кодека/Информация : UTF-8 Plain Text
Продолжительность : 1 ч. 56 м.
Битрейт : 58 бит/сек
Count of elements : 1536
Размер потока : 49,6 Кбайт (0%)
Заголовок : Subntitle eng
Язык : English
Default : Нет
Forced : Нет
Меню
00:00:00.000 : en:00:00:00.000
00:00:13.013 : en:00:00:13.013
00:03:08.188 : en:00:03:08.188
00:11:08.668 : en:00:11:08.668
00:18:37.116 : en:00:18:37.116
00:24:48.487 : en:00:24:48.487
00:31:52.911 : en:00:31:52.911
00:38:54.332 : en:00:38:54.332
00:47:08.826 : en:00:47:08.826
00:52:28.145 : en:00:52:28.145
01:00:46.643 : en:01:00:46.643
01:13:53.429 : en:01:13:53.429
01:19:03.739 : en:01:19:03.739
01:33:09.584 : en:01:33:09.584
01:40:54.048 : en:01:40:54.048
01:50:19.613 : en:01:50:19.613
01:53:46.820 : en:01:53:46.820

Скриншоты


Показать сообщения:    

Текущее время: 25-Сен 12:37

Часовой пояс: UTC - 1


Вы не можете начинать темы
Вы не можете отвечать на сообщения
Вы не можете редактировать свои сообщения
Вы не можете удалять свои сообщения
Вы не можете голосовать в опросах
Вы не можете прикреплять файлы к сообщениям
Вы не можете скачивать файлы

!ВНИМАНИЕ!
Сайт не предоставляет электронные версии произведений, а занимается лишь коллекционированием и каталогизацией ссылок, присылаемых и публикуемых на форуме нашими читателями. Если вы являетесь правообладателем какого-либо представленного материала и не желаете, чтобы ссылка на него находилась в нашем каталоге, свяжитесь с нами, и мы незамедлительно удалим ее. Файлы для обмена на трекере предоставлены пользователями сайта, и администрация не несет ответственности за их содержание. Просьба не заливать файлы, защищенные авторскими правами, а также файлы нелегального содержания!