Джози и кошечки / Josie and the Pussycats (Гарри Элфонт, Дебора Каплан / Harry Elfont, Deborah Kaplan) [2001, США, комедия, WEB-DL 1080p] MVO (R2) + DVO (Лазер Видео) + Original + Sub (Eng) :: Ивановский Торрент трекер
Важное объявление!
У Нас Все раздачи мультитрекерные, при нуле пиров в релизах, можете смело вставать на закачку!
 
Автор Сообщение

HUNTER

Стаж:
4 года 11 месяцев
Сообщений:
66045

Репутация: 101

[+] [-]
Вне форума [Профиль] [ЛС]

Джози и кошечки / Josie and the Pussycats
-Год выпуска: 2001
Страна: США
Студия: Metro-Goldwyn-Mayer (MGM), Universal Pictures
Жанр: Комедия
Продолжительность: 01:38:24
Перевод:
  • Профессиональный (многоголосый закадровый) R2
  • Профессиональный (двухголосый закадровый) Лазер Видео |VHS|
Cубтитры: английские |SDH|
Оригинальная аудиодорожка: английский
-Режиссеры: Гарри Элфонт и Дебора Каплан / Harry Elfont & Deborah Kaplan-В ролях: Рэйчел Ли Кук, Тара Рид, Розарио Доусон, Алан Камминг, Паркер Поузи, Гэбриэль Мэнн, Пауло Костанзо, Мисси Пайл, Том Батлер, Александр Мартин и другие.-Роли озвучивали:
  • R2: Александр Рахленко, Олег Вирозуб, Марина Бакина.
  • Лазер Видео: Александр Новиков, Елена Чебатуркина.
-Описание: Это история о том, как маленькая и неизвестная группа пробилась на верхние строчки хит-парадов и превратилась во всем известных рок-звезд. Многие хотели быть похожими на них, многие были тоже талантливыми и красивыми. Но почему это удалось сделать именно ним, трем молоденьким симпатичным девушкам? Через что они прошли и что им пришлось сделать ради славы и поклонников?-РЕЛИЗ ОТ: V.SERIJ2013-Спасибо порошкову за аудиодорожку R2, Fikaloid за оцифровку VHS-издания Лазер Видео и v.serij2013 (т.е., мне) за обработку и сведение.-Качество: WEB-DL 1080p |HKD|
Формат: MKV
Видео кодек: H.264
Аудио кодек: AC3
Видео: H.264, 1916x1036 (1.85:1), 23.976 fps, ~5056 kbps, 0.106 bit/pixel
Аудио:
  • русская |R2|: AC3, 48 kHz, 6 ch, 384 kbps
    русская |Лазер Видео|: AC3, 48 kHz, 2 ch, 256 kbps
  • английская |Оригинал|: AC3, 48 kHz, 6 ch, 384 kbps
-Сэмпл \ Кинопоиск-

Скриншоты

Media Info

Код:
General
Unique ID                      : 206765304106585260162968198046797257000 (0x9B8D8C8F73FE3E7DB9E0CBCF6C5BD928)
Complete name                  : E:\Video\HD\Movies (HD)\Josie And The Pussycats (2001) (WEB-DL 1080p).mkv
Format                         : Matroska
Format version                 : Version 4 / Version 2
File size                      : 4.26 GiB
Duration                       : 1h 38mn
Overall bit rate               : 6 204 Kbps
Encoded date                   : UTC 2016-03-05 08:58:47
Writing application            : mkvmerge v8.8.0 ('Wind at my back') 32bit
Writing library                : libebml v1.3.3 + libmatroska v1.4.4
DURATION                       : 01:38:24.320000000
NUMBER_OF_FRAMES               : 184510
NUMBER_OF_BYTES                : 188938240
_STATISTICS_WRITING_APP        : mkvmerge v8.8.0 ('Wind at my back') 32bit
_STATISTICS_WRITING_DATE_UTC   : 2016-03-05 08:58:47
_STATISTICS_TAGS               : BPS DURATION NUMBER_OF_FRAMES NUMBER_OF_BYTES
Video
ID                             : 1
Format                         : AVC
Format/Info                    : Advanced Video Codec
Format profile                 : High@L4.0
Format settings, CABAC         : Yes
Format settings, ReFrames      : 4 frames
Codec ID                       : V_MPEG4/ISO/AVC
Duration                       : 1h 38mn
Bit rate                       : 5 056 Kbps
Width                          : 1 916 pixels
Height                         : 1 036 pixels
Display aspect ratio           : 1.85:1
Frame rate mode                : Constant
Frame rate                     : 23.976 fps
Color space                    : YUV
Chroma subsampling             : 4:2:0
Bit depth                      : 8 bits
Scan type                      : Progressive
Bits/(Pixel*Frame)             : 0.106
Stream size                    : 3.48 GiB (82%)
Language                       : English
Default                        : Yes
Forced                         : No
Color primaries                : BT.709
Transfer characteristics       : BT.709
Matrix coefficients            : BT.709
Color range                    : Limited
Audio #1
ID                             : 2
Format                         : AC-3
Format/Info                    : Audio Coding 3
Mode extension                 : CM (complete main)
Format settings, Endianness    : Big
Codec ID                       : A_AC3
Duration                       : 1h 38mn
Bit rate mode                  : Constant
Bit rate                       : 384 Kbps
Channel(s)                     : 6 channels
Channel positions              : Front: L C R, Side: L R, LFE
Sampling rate                  : 48.0 KHz
Bit depth                      : 16 bits
Compression mode               : Lossy
Stream size                    : 270 MiB (6%)
Title                          : MVO (R2)
Language                       : Russian
Default                        : Yes
Forced                         : No
Audio #2
ID                             : 3
Format                         : AC-3
Format/Info                    : Audio Coding 3
Mode extension                 : CM (complete main)
Format settings, Endianness    : Big
Codec ID                       : A_AC3
Duration                       : 1h 38mn
Bit rate mode                  : Constant
Bit rate                       : 256 Kbps
Channel(s)                     : 2 channels
Channel positions              : Front: L R
Sampling rate                  : 48.0 KHz
Bit depth                      : 16 bits
Compression mode               : Lossy
Stream size                    : 180 MiB (4%)
Title                          : DVO (Лазер Видео)
Language                       : Russian
Default                        : No
Forced                         : No
Audio #3
ID                             : 4
Format                         : AC-3
Format/Info                    : Audio Coding 3
Mode extension                 : CM (complete main)
Format settings, Endianness    : Big
Codec ID                       : A_AC3
Duration                       : 1h 38mn
Bit rate mode                  : Constant
Bit rate                       : 384 Kbps
Channel(s)                     : 6 channels
Channel positions              : Front: L C R, Side: L R, LFE
Sampling rate                  : 48.0 KHz
Bit depth                      : 16 bits
Compression mode               : Lossy
Stream size                    : 270 MiB (6%)
Title                          : Original
Language                       : English
Default                        : No
Forced                         : No
Text
ID                             : 5
Format                         : UTF-8
Codec ID                       : S_TEXT/UTF8
Codec ID/Info                  : UTF-8 Plain Text
Title                          : SDH
Language                       : English
Default                        : No
Forced                         : No
Menu
00:00:00.000                   : en:Du Jour's Last Tour
00:07:06.000                   : en:Main Titles
00:09:49.000                   : en:Who's a Rock Star
00:16:15.000                   : en:Du Jour's Disappearance
00:21:18.000                   : en:Wyatt's New Band
00:31:16.000                   : en:One Giant Commercial
00:35:32.000                   : en:The Megasound 8000
00:38:11.000                   : en:One Week to #1
00:43:49.000                   : en:Subliminal Surrounds
00:50:25.000                   : en:Fiona's Party
01:01:05.000                   : en:Total Request Dead
01:05:33.000                   : en:No More Band
01:11:15.000                   : en:The Trend Pimps
01:15:03.000                   : en:Fiona's Threat
01:20:24.000                   : en:Cat Fight
01:21:49.000                   : en:The Real Fiona
01:26:45.000                   : en:The Big Concert
01:32:44.000                   : en:End Titles
-

_________________
Показать сообщения:    

Текущее время: Сегодня 17:36

Часовой пояс: GMT



Вы не можете начинать темы
Вы не можете отвечать на сообщения
Вы не можете редактировать свои сообщения
Вы не можете удалять свои сообщения
Вы не можете голосовать в опросах
Вы не можете прикреплять файлы к сообщениям
Вы не можете скачивать файлы