Джильи / Gigli (Мартин Брест / Martin Brest) [2003, комедия, мелодрама, криминал, DVDRip] Dub (ОРТ) + MVO (R5) :: Ивановский Торрент трекер
Важное объявление!
У Нас Все раздачи мультитрекерные, при нуле пиров в релизах, можете смело вставать на закачку!
Статистика раздачи
Размер:     |    Зарегистрирован:     |    Скачан:     |   
Нет
 
     
 
 
Автор Сообщение

димитри37

Стаж:
4 года 3 месяца
Сообщений:
1236

Репутация: 127

[+] [-]
Вне форума [Профиль] [ЛС]

Джильи / Gigli
Страна: США
Жанр: комедия, мелодрама, криминал
Год выпуска: 2003
Продолжительность: 01:56:24
Перевод: Профессиональный (дублированный) ОРТ
Перевод 2: Профессиональный (многоголосый закадровый) R5
Cубтитры: нет
Оригинальная аудиодорожка: нет
Режиссер: Мартин Брест / Martin Brest
В ролях: Бен Аффлек, Дженнифер Лопез, Джастин Барса, Кристофер Уолкен, Терранс Камиллери, Дэвид Бакас, Аль Пачино
Описание: Впервые в своей жизни незадачливый гангстер Ларри Джильи получил серьезное задание — выкрасть из клиники и взять в заложники слабоумого брата несговорчивого окружного прокурора. Ослепленный радужными перспективами карьерного роста в рядах родной мафии, герой лихо выкрадывает беднягу, но его боссы решают подстраховаться.
И присылают к Джильи свирепую убийцу-лесбиянку Рикш, чтобы та присмотрела за ним и, если тот завалит дело, пустила парня в расход. Мудрые «крестные отцы» не учли лишь одного — всепобеждающего обаяния симпатяги Ларри, пред которым не может устоять даже не выносящая мужчин несгибаемая киллерша! Один маленький прокол — но он ставит всю операцию на грань провала!

Качество видео: DVDRip
Формат видео: AVI
Видео: 704x304 (2.32:1), 25 fps, DivX Codec 6.8.5 ~951 kbps avg, 0.18 bit/pixel
Аудио: 48 kHz, AC3 Dolby Digital, 3/2 (L,C,R,l,r) + LFE ch, ~384.00 kbps avg [rus ДУБЛЯЖ]
Аудио 2: 48 kHz, AC3 Dolby Digital, 3/2 (L,C,R,l,r) + LFE ch, ~448.00 kbps avg [rus многоголосый R5]

MediaInfo

General
Complete name : C:\фильмы\Gigli (2003).avi
Format : AVI
Format/Info : Audio Video Interleave
File size : 1.46 GiB
Duration : 1h 56mn
Overall bit rate : 1 799 Kbps
Movie name : Gigli (2003)
Copyright : для портала www.uralmix.ru
Video
ID : 0
Format : MPEG-4 Visual
Format settings, BVOP : 1
Format settings, QPel : No
Format settings, GMC : No warppoints
Format settings, Matrix : Default (H.263)
Muxing mode : Packed bitstream
Codec ID : DX50
Codec ID/Hint : DivX 5
Duration : 1h 56mn
Bit rate : 952 Kbps
Width : 704 pixels
Height : 304 pixels
Display aspect ratio : 2.35:1
Frame rate : 25.000 fps
Color space : YUV
Chroma subsampling : 4:2:0
Bit depth : 8 bits
Scan type : Progressive
Compression mode : Lossy
Bits/(Pixel*Frame) : 0.178
Stream size : 793 MiB (53%)
Writing library : DivX 6.8.5 (UTC 2009-08-20)
Audio #1
ID : 1
Format : AC-3
Format/Info : Audio Coding 3
Mode extension : CM (complete main)
Codec ID : 2000
Duration : 1h 56mn
Bit rate mode : Constant
Bit rate : 384 Kbps
Channel(s) : 6 channels
Channel positions : Front: L C R, Side: L R, LFE
Sampling rate : 48.0 KHz
Bit depth : 16 bits
Compression mode : Lossy
Stream size : 320 MiB (21%)
Alignment : Split accross interleaves
Interleave, duration : 40 ms (1.00 video frame)
Interleave, preload duration : 500 ms
Language : 5 / @5
Audio #2
ID : 2
Format : AC-3
Format/Info : Audio Coding 3
Mode extension : CM (complete main)
Codec ID : 2000
Duration : 1h 56mn
Bit rate mode : Constant
Bit rate : 448 Kbps
Channel(s) : 6 channels
Channel positions : Front: L C R, Side: L R, LFE
Sampling rate : 48.0 KHz
Bit depth : 16 bits
Compression mode : Lossy
Stream size : 373 MiB (25%)
Alignment : Split accross interleaves
Interleave, duration : 40 ms (1.00 video frame)
Interleave, preload duration : 500 ms

Скриншоты

-
Показать сообщения:    

Текущее время: Сегодня 20:58

Часовой пояс: GMT



Вы не можете начинать темы
Вы не можете отвечать на сообщения
Вы не можете редактировать свои сообщения
Вы не можете удалять свои сообщения
Вы не можете голосовать в опросах
Вы не можете прикреплять файлы к сообщениям
Вы не можете скачивать файлы