Джек – покоритель великанов / Jack the Giant Slayer (Брайан Сингер / Bryan Singer) [2013, фэнтези, приключения, BD>DVD9] DUB + Ukr + Original + Sub Rus, Eng :: Ивановский Торрент трекер
Важное объявление!
У Нас Все раздачи мультитрекерные, при нуле пиров в релизах, можете смело вставать на закачку!
Статистика раздачи
Размер:     |    Зарегистрирован:     |    Скачан:     |   
Нет
 
     
 
 
Автор Сообщение

HUNTER

Стаж:
4 года 11 месяцев
Сообщений:
66112

Репутация: 101

[+] [-]
Вне форума [Профиль] [ЛС]

Джек – покоритель великанов
Jack the Giant Slayer
-«If you think you know the story, you don't know Jack.»-Страна: США
Год выпуска: 2013
Жанр: фэнтези, приключения
Продолжительность: 01:54:02--Перевод: Профессиональный (дублированный)
Cубтитры: Русские форсированные, Русские, Английские
Оригинальная аудиодорожка: Английская--Режиссер:
Брайан Сингер / Bryan Singer
В ролях:
Николас Холт (Jack), Элинор Томлинсон (Isabelle), Юэн МакГрегор (Elmont), Стэнли Туччи (Roderick), Иэн МакШейн (King Brahmwell), Билл Найи (General Fallon), Джон Кассир (General Fallon's Small Head), Бен Дэниелс (Fumm), Юэн Бремнер (Wicke), Эдди Марсан (Crawe)--Описание:История начинается с похищения принцессы, что грозит нарушить хрупкий мир между людьми и великанами. Юный фермер возглавляет вылазку в царство гигантов в надежде спасти девушку.-- --Доп. информация: Исходиник Blu-Ray взятый из сети. Спасибо AlexD555 за инструкцию! Так же спасибо товарищам samsonq и ZVNV.--Меню: русское, статичное, озвученое
Сэмпл: http://multi-up.com/880119-Тип релиза: DVD9
Контейнер: DVD-Video
Видео: NTSC 16:9 (720x480) VBR, Auto Letterboxed
Аудио 1: Russian (Dolby AC3, 5.1 ch, 448 кб/с) - дублированный
Аудио 2: Ukrainian (Dolby AC3, 5.1 ch, 448 кб/с) - дублированный
Аудио 3: English (Dolby AC3, 5.1 ch, 448 кб/с) - оригиналРелиз от:

Точка перехода

MediaInfo

General
Complete name : D:\Фильмы\Dzhek.pokoritel.velikanov.2013.DVD9\VIDEO_TS\VTS_01_2.VOB
Format : MPEG-PS
File size : 1 024 MiB
Duration : 14mn 35s
Overall bit rate : 9 814 Kbps
Video
ID : 224 (0xE0)
Format : MPEG Video
Format version : Version 2
Format profile : Main@Main
Format settings, BVOP : Yes
Format settings, Matrix : Custom
Format settings, GOP : M=3, N=12
Duration : 14mn 34s
Bit rate mode : Variable
Bit rate : 8 274 Kbps
Maximum bit rate : 8 456 Kbps
Width : 720 pixels
Height : 480 pixels
Display aspect ratio : 16:9
Frame rate : 23.976 fps
Standard : NTSC
Color space : YUV
Chroma subsampling : 4:2:0
Bit depth : 8 bits
Scan type : Progressive
Scan order : 2:3 Pulldown
Compression mode : Lossy
Bits/(Pixel*Frame) : 0.999
Stream size : 863 MiB (84%)
Audio #1
ID : 189 (0xBD)-128 (0x80)
Format : AC-3
Format/Info : Audio Coding 3
Mode extension : CM (complete main)
Muxing mode : DVD-Video
Duration : 14mn 35s
Bit rate mode : Constant
Bit rate : 448 Kbps
Channel(s) : 6 channels
Channel positions : Front: L C R, Side: L R, LFE
Sampling rate : 48.0 KHz
Bit depth : 16 bits
Compression mode : Lossy
Delay relative to video : -685ms
Stream size : 46.7 MiB (5%)
Audio #2
ID : 189 (0xBD)-129 (0x81)
Format : AC-3
Format/Info : Audio Coding 3
Mode extension : CM (complete main)
Muxing mode : DVD-Video
Duration : 14mn 35s
Bit rate mode : Constant
Bit rate : 448 Kbps
Channel(s) : 6 channels
Channel positions : Front: L C R, Side: L R, LFE
Sampling rate : 48.0 KHz
Bit depth : 16 bits
Compression mode : Lossy
Delay relative to video : -685ms
Stream size : 46.7 MiB (5%)
Audio #3
ID : 189 (0xBD)-130 (0x82)
Format : AC-3
Format/Info : Audio Coding 3
Mode extension : CM (complete main)
Muxing mode : DVD-Video
Duration : 14mn 35s
Bit rate mode : Constant
Bit rate : 448 Kbps
Channel(s) : 6 channels
Channel positions : Front: L C R, Side: L R, LFE
Sampling rate : 48.0 KHz
Bit depth : 16 bits
Compression mode : Lossy
Delay relative to video : -685ms
Stream size : 46.7 MiB (5%)
Text #1
ID : 189 (0xBD)-33 (0x21)
Format : RLE
Format/Info : Run-length encoding
Muxing mode : DVD-Video
Delay relative to video : -333ms
Text #2
ID : 189 (0xBD)-34 (0x22)
Format : RLE
Format/Info : Run-length encoding
Muxing mode : DVD-Video
Delay relative to video : 467ms
Menu

DVDInfo

Title: Dzhek.pokoritel.velikanov.2013.DVD9
Size: 7.85 Gb ( 8 233 462,00 KBytes ) - DVD-9
Enabled regions: 1, 2, 3, 4, 5, 6, 7, 8
VTS_01 :
Play Length: 01:54:02
Video: NTSC 16:9 (720x480) VBR, Auto Letterboxed
Audio:
Russian, AC3, 3/2 (L,C,R,SL,SR)+LFE ch, 448 kbps, Delay 0 mSec
Ukrainian, AC3, 3/2 (L,C,R,SL,SR)+LFE ch, 448 kbps, Delay 0 mSec
English, AC3, 3/2 (L,C,R,SL,SR)+LFE ch, 448 kbps, Delay 0 mSec
Subtitles:
Russian
Russian
English

Программы, используемые при создании релиза

Видео
ProCoder 3 - конвертация видео
AviSynth - обработка видео
DGDecodeNV - индексирование
Програмы для разборки ремукса/DVD
tsMuxeR - разборка ремукса
Работа со звуком
VirtualDubMod - извлечение MP3
TranzcodeGUI, BeSweet - извлечение WAV
Sonic Foundry Soft Encode - конвертация из формата WAV в AC3
Работа с меню и реавторинг
DVD-lab PRO 2 - реавторинг диска
Adobe Photoshop - редактирование меню

-
-

Скриншоты меню

Скриншоты


_________________
Показать сообщения:    

Текущее время: Сегодня 22:53

Часовой пояс: GMT



Вы не можете начинать темы
Вы не можете отвечать на сообщения
Вы не можете редактировать свои сообщения
Вы не можете удалять свои сообщения
Вы не можете голосовать в опросах
Вы не можете прикреплять файлы к сообщениям
Вы не можете скачивать файлы