Важное объявление!
У Нас Все раздачи мультитрекерные, при нуле пиров в релизах, можете смело вставать на закачку!
 
Автор Сообщение

HUNTER

Стаж:
4 года 8 месяцев
Сообщений:
62102

Репутация: 101

[+] [-]
Вне форума [Профиль] [ЛС]

Джеймс и гигантский персик / James and the Giant Peach
Страна: США, Великобритания
Жанр: фэнтези, мюзикл, приключения, семейный, мультфильм
Продолжительность: 01:19:25
Год выпуска: 1996
Перевод: Профессиональный (многоголосый закадровый) - Дисней
Перевод: Профессиональный (двухголосый закадровый) - Видеофильм Интернешнл
Перевод: Профессиональный (многоголосый закадровый) - Видеосервис
Перевод: Авторский (одноголосый закадровый) - Павел Санаев
Русские субтитры: нет

Режиссёр: Генри Селик / Henry Selick
Роли озвучивали: Саймон Кэллоу, Ричард Дрейфусс, Джейн Ливз, Джоанна Ламли, Мириам Марголис, Пит Постлетуэйт, Сьюзен Сарандон, Пол Терри, Дэвид Тьюлис, Дж. Стефен Койл
Описание: Однажды маленький Джеймс спасает жизнь паука. В благодарность тот дарит мальчику волшебное зелье, из-за которого небольшой персик неожиданно вырастает в гигантский фрукт. Внутри него скрывается целый мир. Возможно, там Джеймса ждут настоящие друзья, которые помогут осуществить его самые заветные мечты…--За исходную звуковую дорожку с переводом "Видеосервис" спасибо bora86bora, за Павла Санаева - d_rocker, "Видеофильм Интернешнл" - Diablo.
Работа со звуком и исходный ремукс - xfiles. Спасибо ему большое!--Качество: BDRip
Формат: AVI
Видео: 720x432 (1.67:1), 23.976 fps, XviD build 73 ~1974 kbps avg, 0.26 bit/pixel
Аудио: 48 kHz, AC3 Dolby Digital, 3/2 (L,C,R,l,r) + LFE ch, ~448 kbps - Дисней
Аудио : 48 kHz, AC3 Dolby Digital, 2/0 (L,R) ch, ~192 kbps - Видеофильм Интернешнл
отдельными файлами:
Аудио: 48 kHz, AC3 Dolby Digital, 2/0 (L,R) ch, ~192 kbps - Видеосервис
Аудио: 48 kHz, AC3 Dolby Digital, 2/0 (L,R) ch, ~192 kbps - Санаев
Аудио: 48 kHz, AC3 Dolby Digital, 3/2 (L,C,R,l,r) + LFE ch, ~448 kbps - оригинал
Субтитры: английские

Подробные технические данные

ОбщееПолное имя : H:\James.and.the.Giant.Peach.1996.bdrip_[1.46]_[teko]\James.and.the.Giant.Peach.1996.bdrip_[1.46].aviФормат : AVIФормат/Информация : Audio Video InterleaveРазмер файла : 1,46 ГбайтПродолжительность : 1 ч. 19 м.Общий поток : 2630 Кбит/секПрограмма кодирования : VirtualDubMod 1.5.10.3 | www.virtualdub-fr.org || (build 2550/release)Библиотека кодирования : VirtualDubMod build 2550/release
ВидеоИдентификатор : 0Формат : MPEG-4 VisualПрофиль формата : Advanced Simple@L5Параметр BVOP формата : 1Параметр QPel формата : НетПараметр GMC формата : Без точки переходаПараметр матрицы формата : ВыборочнаяИдентификатор кодека : XVIDИдентификатор кодека/Подсказка : XviDПродолжительность : 1 ч. 19 м.Битрейт : 1975 Кбит/секШирина : 720 пикселейВысота : 432 пикселяСоотношение сторон : 1,667Частота кадров : 23,976 кадра/секЦветовое пространство : YUVСубдискретизация насыщенности : 4:2:0Битовая глубина : 8 битТип развёртки : ПрогрессивнаяМетод сжатия : С потерямиБит/(Пиксели*Кадры) : 0.265Размер потока : 1,10 Гбайт (75%)Библиотека кодирования : XviD 73
Аудио #1Идентификатор : 1Формат : AC-3Формат/Информация : Audio Coding 3Расширение режима : CM (complete main)Параметр Endianness формата : BigИдентификатор кодека : 2000Продолжительность : 1 ч. 19 м.Вид битрейта : ПостоянныйБитрейт : 448 Кбит/секКаналы : 6 каналовРасположение каналов : Front: L C R, Side: L R, LFEЧастота : 48,0 КГцБитовая глубина : 16 битМетод сжатия : С потерямиРазмер потока : 254 Мбайт (17%)Выравнивание : Разделение по промежуткамПродолжительность промежутка : 42 мс. (1,00 видеокадр)Время предзагрузки промежутка : 500 мс.
Аудио #2Идентификатор : 2Формат : AC-3Формат/Информация : Audio Coding 3Расширение режима : CM (complete main)Параметр Endianness формата : BigИдентификатор кодека : 2000Продолжительность : 1 ч. 19 м.Вид битрейта : ПостоянныйБитрейт : 192 Кбит/секКаналы : 2 каналаРасположение каналов : Front: L RЧастота : 48,0 КГцБитовая глубина : 16 битМетод сжатия : С потерямиРазмер потока : 109 Мбайт (7%)Выравнивание : Разделение по промежуткамПродолжительность промежутка : 42 мс. (1,00 видеокадр)Время предзагрузки промежутка : 500 мс.
Релиз группы:
--

_________________
Показать сообщения:    

Текущее время: Сегодня 09:23

Часовой пояс: GMT



Вы не можете начинать темы
Вы не можете отвечать на сообщения
Вы не можете редактировать свои сообщения
Вы не можете удалять свои сообщения
Вы не можете голосовать в опросах
Вы не можете прикреплять файлы к сообщениям
Вы не можете скачивать файлы
Наши партнеры: интернет магазин Ивановского трикотажа textilla.ru