Важное объявление!
У Нас Все раздачи мультитрекерные, при нуле пиров в релизах, можете смело вставать на закачку!
 
Автор Сообщение

HUNTER

Стаж:
4 года 9 месяцев
Сообщений:
65008

Репутация: 101

[+] [-]
Вне форума [Профиль] [ЛС]

Джеймс и гигантский персик / James and the Giant Peach-
Страна: Великобритания, США
Жанр: фэнтези, приключения, семейный, мультфильм
Продолжительность: 01:19:25
Год выпуска: 1996
Перевод 1: Профессиональный (многоголосый закадровый) - Канал "Дисней"
Перевод 2: Профессиональный (многоголосый закадровый) - "Видеосервис"
Перевод 3: Профессиональный (двухголосый закадровый) - "Видеофильм Интернешнл"
Перевод 4: Авторский (одноголосый закадровый) - Павел Санаев
Русские субтитры: нет-Режиссёр: Генри Селик / Henry Selick
В ролях: Саймон Кэллоу, Ричард Дрейфусс, Джейн Ливз, Джоанна Ламли, Мириам Марголис, Пит Постлетуэйт, Сьюзен Сарандон, Пол Терри, Дэвид Тьюлис, Дж. Стефен Койл...- | Релиз: -Описание: Однажды маленький Джеймс спасает жизнь паука. В благодарность тот дарит мальчику волшебное зелье, из-за которого небольшой персик неожиданно вырастает в гигантский фрукт. Внутри него скрывается целый мир. Возможно, там Джеймса ждут настоящие друзья, которые помогут осуществить его самые заветные мечты…-Доп. информация:
- Звуковая дорожка #1 изготовлена путем наложения выделенных из дорожки #5 голосов на центральный канал декодированной оригинальной DTS-HD MA дорожки.
- За исходную звуковую дорожку с переводом "Видеосервис" спасибо bora86bora, за Павла Санаева - d_rocker, "Видеофильм Интернешнл" - Diablo.
- Работа со звуком - xfiles.-Семпл: -Качество: BDRemux 1080p
Формат: MKV
Видео: 1920x1080p (16:9), 23.976 fps, AVC, 35494 kbps
Аудио #1: Русский, 48.0 KHz, DTS-HD MA, 6 ch, 4499 kbps/1509 kbps, 24-bit - Многоголосый закадровый | Канал "Дисней"
Аудио #2: Русский, 48.0 KHz, FLAC, 2 ch, 712 kbps, 16-bit - Многоголосый закадровый | "Видеосервис" (VHS Hi-Fi)
Аудио #3: Русский, 48.0 KHz, AC3, 2 ch, 192 kbps - Двухголосый закадровый | Видеофильм Интернешнл
Аудио #4: Русский, 48.0 KHz, AC3, 1 ch, 192 kbps - Одноголосый закадровый | Павел Санаев (VHS)
Аудио #5: Русский, 48.0 KHz, AC3, 1 ch, 192 kbps - Многоголосый закадровый | Канал "Дисней" (Mono)
Аудио #6: English, 48.0 KHz, DTS-HD MA, 6 ch, 4485 kbps/1509 kbps, 24-bit - Original
Субтитры: English SDH
MediaInfo
GeneralUnique ID : 209694702484935300246427206559053458284 (0x9DC1BB0D2835AD1A8C43EF3302B12B6C)Complete name : Z:\HD\James.and.the.Giant.Peach.1996.BDRemux.1080p-rutracker.xfiles.mkvFormat : MatroskaFormat version : Version 4 / Version 2File size : 25.2 GiBDuration : 1h 19mnOverall bit rate mode : VariableOverall bit rate : 45.5 MbpsMovie name : James and the Giant Peach 1996 BDRemux 1080p - rutracker.xfilesEncoded date : UTC 2014-06-21 14:58:45Writing application : mkvmerge v7.0.0 ('Where We Going') 64bit built on Jun 9 2014 15:16:27Writing library : libebml v1.3.0 + libmatroska v1.4.1DURATION : 01:18:17.566000000NUMBER_OF_FRAMES : 1248NUMBER_OF_BYTES : 40329_STATISTICS_WRITING_APP : mkvmerge v7.0.0 ('Where We Going') 64bit built on Jun 9 2014 15:16:27_STATISTICS_WRITING_DATE_UTC : 2014-06-21 14:58:45_STATISTICS_TAGS : BPS DURATION NUMBER_OF_FRAMES NUMBER_OF_BYTESAttachment : Yes
VideoID : 1Format : AVCFormat/Info : Advanced Video CodecFormat profile : High@L4.1Format settings, CABAC : YesFormat settings, ReFrames : 4 framesCodec ID : V_MPEG4/ISO/AVCDuration : 1h 19mnBit rate mode : VariableMaximum bit rate : 37.0 MbpsWidth : 1 920 pixelsHeight : 1 080 pixelsDisplay aspect ratio : 16:9Frame rate mode : ConstantFrame rate : 23.976 fpsColor space : YUVChroma subsampling : 4:2:0Bit depth : 8 bitsScan type : ProgressiveTitle : http://rutracker.org/forum/viewtopic.php?t=4766452Language : EnglishDefault : YesForced : NoColor primaries : BT.709Transfer characteristics : BT.709Matrix coefficients : BT.709
Audio #1ID : 2Format : DTSFormat/Info : Digital Theater SystemsFormat profile : MA / CoreMode : 16Format settings, Endianness : BigCodec ID : A_DTSDuration : 1h 19mnBit rate mode : VariableBit rate : Unknown / 1 509 KbpsChannel(s) : 6 channelsChannel positions : Front: L C R, Side: L R, LFESampling rate : 48.0 KHzBit depth : 24 bitsCompression mode : Lossless / LossyTitle : Многоголосый закадровый | Канал "Дисней" | 5.1 chLanguage : RussianDefault : YesForced : No
Audio #2ID : 3Format : FLACFormat/Info : Free Lossless Audio CodecCodec ID : A_FLACDuration : 1h 19mnBit rate mode : VariableChannel(s) : 2 channelsSampling rate : 48.0 KHzBit depth : 16 bitsTitle : Многоголосый закадровый | "Видеосервис" | VHS Hi-FiWriting library : libFLAC 1.2.1 (UTC 2007-09-17)Language : RussianDefault : NoForced : No
Audio #3ID : 4Format : AC-3Format/Info : Audio Coding 3Mode extension : CM (complete main)Format settings, Endianness : BigCodec ID : A_AC3Duration : 1h 19mnBit rate mode : ConstantBit rate : 192 KbpsChannel(s) : 2 channelsChannel positions : Front: L RSampling rate : 48.0 KHzBit depth : 16 bitsCompression mode : LossyStream size : 109 MiB (0%)Title : Двухголосый закадровый | "Видеофильм Интернешнл"Language : RussianDefault : NoForced : No
Audio #4ID : 5Format : AC-3Format/Info : Audio Coding 3Mode extension : CM (complete main)Format settings, Endianness : BigCodec ID : A_AC3Duration : 1h 19mnBit rate mode : ConstantBit rate : 192 KbpsChannel(s) : 1 channelChannel positions : Front: CSampling rate : 48.0 KHzBit depth : 16 bitsCompression mode : LossyStream size : 109 MiB (0%)Title : Одноголосый закадровый | Павел Санаев | VHSLanguage : RussianDefault : NoForced : No
Audio #5ID : 6Format : AC-3Format/Info : Audio Coding 3Mode extension : CM (complete main)Format settings, Endianness : BigCodec ID : A_AC3Duration : 1h 19mnBit rate mode : ConstantBit rate : 192 KbpsChannel(s) : 1 channelChannel positions : Front: CSampling rate : 48.0 KHzBit depth : 16 bitsCompression mode : LossyStream size : 109 MiB (0%)Title : Многоголосый закадровый | Канал "Дисней" | MonoLanguage : RussianDefault : NoForced : No
Audio #6ID : 7Format : DTSFormat/Info : Digital Theater SystemsFormat profile : MA / CoreMode : 16Format settings, Endianness : BigCodec ID : A_DTSDuration : 1h 19mnBit rate mode : VariableBit rate : Unknown / 1 509 KbpsChannel(s) : 6 channelsChannel positions : Front: L C R, Side: L R, LFESampling rate : 48.0 KHzBit depth : 24 bitsCompression mode : Lossless / LossyTitle : OriginalLanguage : EnglishDefault : NoForced : No
TextID : 8Format : UTF-8Codec ID : S_TEXT/UTF8Codec ID/Info : UTF-8 Plain TextTitle : SDHLanguage : EnglishDefault : NoForced : No
Menu00:00:00.000 : en:1. Opening Credits / A change in circumstances00:04:36.734 : en:2. No dreaming allowed00:06:39.356 : en:3. "My name is James"00:09:55.761 : en:4. A most mysterious man00:14:14.060 : en:5. Miraculous growth00:17:46.940 : en:6. A little leftover magic00:22:11.538 : en:7. "That's the life"00:24:12.993 : en:8. Peach on the move00:31:40.773 : en:9. Shark attack!00:39:07.053 : en:10. "Eating the peach"00:41:57.973 : en:11. Friends and enemies00:44:58.195 : en:12. A navigational error00:48:19.478 : en:13. The haunted shipwreck00:53:17.694 : en:14. Music of the soul00:55:21.276 : en:15. "Family"00:58:08.568 : en:16. The Rhinoceros01:00:55.068 : en:17. New York City01:04:36.289 : en:18. Legal Guardians01:09:13.314 : en:19. Reunion01:11:48.970 : en:20. Happily-ever-afters / End credits
Скриншоты

_________________
Показать сообщения:    

Текущее время: Сегодня 11:13

Часовой пояс: GMT



Вы не можете начинать темы
Вы не можете отвечать на сообщения
Вы не можете редактировать свои сообщения
Вы не можете удалять свои сообщения
Вы не можете голосовать в опросах
Вы не можете прикреплять файлы к сообщениям
Вы не можете скачивать файлы