Важное объявление!
У Нас Все раздачи мультитрекерные, при нуле пиров в релизах, можете смело вставать на закачку!
 
Автор Сообщение

HUNTER

Стаж:
4 года 9 месяцев
Сообщений:
65057

Репутация: 101

[+] [-]
Вне форума [Профиль] [ЛС]

Джеймс и гигантский персик / James and the Giant Peach-
Страна: Великобритания, США
Жанр: фэнтези, приключения, семейный, мультфильм
Продолжительность: 01:19:25
Год выпуска: 1996
Перевод 1: Профессиональный (многоголосый закадровый) - Канал "Дисней"
Перевод 2: Профессиональный (многоголосый закадровый) - "Видеосервис"
Перевод 3: Профессиональный (двухголосый закадровый) - "Видеофильм Интернешнл"
Перевод 4: Авторский (одноголосый закадровый) - Павел Санаев
Русские субтитры: нет-Режиссёр: Генри Селик / Henry Selick
В ролях: Саймон Кэллоу, Ричард Дрейфусс, Джейн Ливз, Джоанна Ламли, Мириам Марголис, Пит Постлетуэйт, Сьюзен Сарандон, Пол Терри, Дэвид Тьюлис, Дж. Стефен Койл...- | Релиз: -Описание: Однажды маленький Джеймс спасает жизнь паука. В благодарность тот дарит мальчику волшебное зелье, из-за которого небольшой персик неожиданно вырастает в гигантский фрукт. Внутри него скрывается целый мир. Возможно, там Джеймса ждут настоящие друзья, которые помогут осуществить его самые заветные мечты…-Доп. информация:
- Звуковая дорожка #1 изготовлена путем наложения выделенных из дорожки #5 голосов на центральный канал декодированной оригинальной DTS-HD MA дорожки.
- За исходную звуковую дорожку с переводом "Видеосервис" спасибо bora86bora, за Павла Санаева - d_rocker, "Видеофильм Интернешнл" - Diablo.
- Работа со звуком, кодирование видео - xfiles.-Семпл: -Качество: BDRip 720p (xfiles)
Формат: MKV
Видео: 1202x720p (1,669:1), 23.976 fps, AVC, 10290 kbps
Аудио #1: Русский, 48.0 KHz, DTS, 6 ch, 1509 kbps - Многоголосый закадровый | Канал "Дисней"
Аудио #2: Русский, 48.0 KHz, FLAC, 2 ch, 712 kbps - Многоголосый закадровый | "Видеосервис" (VHS Hi-Fi)
Аудио #3: Русский, 48.0 KHz, AC3, 2 ch, 192 kbps - Двухголосый закадровый | Видеофильм Интернешнл
Аудио #4: Русский, 48.0 KHz, AC3, 1 ch, 192 kbps - Одноголосый закадровый | Павел Санаев (VHS)
Аудио #5: Русский, 48.0 KHz, AC3, 1 ch, 192 kbps - Многоголосый закадровый | Канал "Дисней" (Mono)
Аудио #6: English, 48.0 KHz, DTS, 6 ch, 1509 kbps - Original
Субтитры: English SDH
MediaInfo
x264 log
x264 [info]: 1202x720p 1:1 @ 24000/1001 fps (cfr)x264 [info]: using SAR=1/1x264 [info]: using cpu capabilities: MMX2 SSE2Fast SSSE3 SSE4.2 AVXx264 [info]: profile High, level 4.1x264 [info]: cabac=1 ref=9 deblock=1:-2:-2 analyse=0x3:0x133 me=umh subme=11 psy=1 fade_compensate=0.00 psy_rd=1.00:0.25 mixed_ref=1 me_range=48 chroma_me=1 trellis=2 8x8dct=1 cqm=0 deadzone=21,11 fast_pskip=0 chroma_qp_offset=-4 threads=12 lookahead_threads=3 sliced_threads=0 nr=0 decimate=1 interlaced=0 bluray_compat=0 constrained_intra=0 fgo=0 bframes=14 b_pyramid=2 b_adapt=2 b_bias=0 direct=3 weightb=1 open_gop=0 weightp=2 keyint=250 keyint_min=23 scenecut=40 intra_refresh=0 rc_lookahead=70 rc=crf mbtree=0 crf=18.0000 qcomp=0.60 qpmin=0 qpmax=69 qpstep=4 vbv_maxrate=50000 vbv_bufsize=62500 crf_max=0.0 nal_hrd=none filler=0 ip_ratio=1.40 pb_ratio=1.30 aq=3:1.00x264 [info]: frame I:649 Avg QP:14.71 size:145770x264 [info]: frame P:23835 Avg QP:15.47 size: 81340x264 [info]: frame B:89762 Avg QP:18.43 size: 45630x264 [info]: consecutive B-frames: 2.1% 2.4% 6.8% 14.0% 14.1% 49.2% 4.5% 1.4% 1.4% 0.8% 0.7% 1.1% 0.5% 0.7% 0.3%x264 [info]: mb I I16..4: 28.3% 50.9% 20.8%x264 [info]: mb P I16..4: 9.7% 21.6% 4.8% P16..4: 16.8% 22.6% 11.5% 3.1% 0.3% skip: 9.6%x264 [info]: mb B I16..4: 1.7% 4.2% 0.9% B16..8: 31.4% 26.2% 6.2% direct:11.1% skip:18.3% L0:43.1% L1:36.6% BI:20.4%x264 [info]: 8x8 transform intra:60.3% inter:32.4%x264 [info]: direct mvs spatial:99.5% temporal:0.5%x264 [info]: coded y,uvDC,uvAC intra: 95.3% 95.4% 85.9% inter: 44.4% 39.6% 12.0%x264 [info]: i16 v,h,dc,p: 3% 1% 45% 51%x264 [info]: i8 v,h,dc,ddl,ddr,vr,hd,vl,hu: 8% 9% 22% 9% 10% 10% 10% 10% 13%x264 [info]: i4 v,h,dc,ddl,ddr,vr,hd,vl,hu: 6% 15% 10% 9% 13% 12% 12% 10% 13%x264 [info]: i8c dc,h,v,p: 52% 18% 15% 15%x264 [info]: Weighted P-Frames: Y:12.1% UV:8.1%x264 [info]: ref P L0: 38.2% 7.0% 21.5% 9.0% 7.8% 5.0% 5.1% 2.7% 3.0% 0.6% 0.0%x264 [info]: ref B L0: 66.7% 15.1% 7.2% 4.1% 2.7% 2.4% 1.2% 0.4%x264 [info]: ref B L1: 91.4% 8.6%x264 [info]: kb/s:10290.30x264 [info]: encoded 114246 frames, 5.90 fps, 10290.30 kb/s, duration 5:22:57.94
GeneralUnique ID : 224476461312936357532709912683925324720 (0xA8E098078DDAB7179F8F92971BD9C3B0)Complete name : Z:\HD\James.and.the.Giant.Peach.1996.BDRip.720p-rutracker.xfiles.mkvFormat : MatroskaFormat version : Version 4 / Version 2File size : 8.10 GiBDuration : 1h 19mnOverall bit rate mode : VariableOverall bit rate : 14.6 MbpsMovie name : James and the Giant Peach 1996 BDRip 720p - rutracker.xfilesEncoded date : UTC 2014-06-21 13:46:04Writing application : mkvmerge v7.0.0 ('Where We Going') 64bit built on Jun 9 2014 15:16:27Writing library : libebml v1.3.0 + libmatroska v1.4.1_STATISTICS_WRITING_APP : mkvmerge v7.0.0 ('Where We Going') 64bit built on Jun 9 2014 15:16:27_STATISTICS_WRITING_DATE_UTC : 2014-06-21 13:46:04_STATISTICS_TAGS : BPS DURATION NUMBER_OF_FRAMES NUMBER_OF_BYTESDURATION : 01:19:25.077000000NUMBER_OF_FRAMES : 55841NUMBER_OF_BYTES : 424276825Attachment : Yes / Yes
VideoID : 1Format : AVCFormat/Info : Advanced Video CodecFormat profile : High@L4.1Format settings, CABAC : YesFormat settings, ReFrames : 9 framesCodec ID : V_MPEG4/ISO/AVCDuration : 1h 19mnWidth : 1 202 pixelsHeight : 720 pixelsDisplay aspect ratio : 1.669Frame rate mode : ConstantFrame rate : 23.976 fpsColor space : YUVChroma subsampling : 4:2:0Bit depth : 8 bitsScan type : ProgressiveTitle : http://rutracker.org/forum/viewtopic.php?t=4766658Writing library : x264 core 142 r2431kMod ac76440Encoding settings : cabac=1 / ref=9 / deblock=1:-2:-2 / analyse=0x3:0x133 / me=umh / subme=11 / psy=1 / fade_compensate=0.00 / psy_rd=1.00:0.25 / mixed_ref=1 /me_range=48 / chroma_me=1 / trellis=2 / 8x8dct=1 / cqm=0 / deadzone=21,11 / fast_pskip=0 / chroma_qp_offset=-4 / threads=12 / lookahead_threads=3 / sliced_threads=0 / nr=0 /decimate=1 / interlaced=0 / bluray_compat=0 / constrained_intra=0 / fgo=0 / bframes=14 / b_pyramid=2 / b_adapt=2 / b_bias=0 / direct=3 / weightb=1 / open_gop=0 / weightp=2 /keyint=250 / keyint_min=23 / scenecut=40 / intra_refresh=0 / rc_lookahead=70 / rc=crf / mbtree=0 / crf=18.0000 / qcomp=0.60 / qpmin=0 / qpmax=69 / qpstep=4 /vbv_maxrate=50000 / vbv_bufsize=62500 / crf_max=0.0 / nal_hrd=none / filler=0 / ip_ratio=1.40 / pb_ratio=1.30 / aq=3:1.00Language : EnglishDefault : YesForced : NoColor primaries : BT.709Transfer characteristics : BT.709Matrix coefficients : BT.709
Audio #1ID : 2Format : DTSFormat/Info : Digital Theater SystemsMode : 16Format settings, Endianness : BigCodec ID : A_DTSDuration : 1h 19mnBit rate mode : ConstantBit rate : 1 509 KbpsChannel(s) : 6 channelsChannel positions : Front: L C R, Side: L R, LFESampling rate : 48.0 KHzBit depth : 24 bitsCompression mode : LossyStream size : 857 MiB (10%)Title : Многоголосый закадровый | Канал "Дисней" | 5.1 chLanguage : RussianDefault : YesForced : No
Audio #2ID : 3Format : FLACFormat/Info : Free Lossless Audio CodecCodec ID : A_FLACDuration : 1h 19mnBit rate mode : VariableChannel(s) : 2 channelsSampling rate : 48.0 KHzBit depth : 16 bitsTitle : Многоголосый закадровый | "Видеосервис" | VHS Hi-FiWriting library : libFLAC 1.2.1 (UTC 2007-09-17)Language : RussianDefault : NoForced : No
Audio #3ID : 4Format : AC-3Format/Info : Audio Coding 3Mode extension : CM (complete main)Format settings, Endianness : BigCodec ID : A_AC3Duration : 1h 19mnBit rate mode : ConstantBit rate : 192 KbpsChannel(s) : 2 channelsChannel positions : Front: L RSampling rate : 48.0 KHzBit depth : 16 bitsCompression mode : LossyStream size : 109 MiB (1%)Title : Двухголосый закадровый | Видеофильм ИнтернешнлLanguage : RussianDefault : NoForced : No
Audio #4ID : 5Format : AC-3Format/Info : Audio Coding 3Mode extension : CM (complete main)Format settings, Endianness : BigCodec ID : A_AC3Duration : 1h 19mnBit rate mode : ConstantBit rate : 192 KbpsChannel(s) : 1 channelChannel positions : Front: CSampling rate : 48.0 KHzBit depth : 16 bitsCompression mode : LossyStream size : 109 MiB (1%)Title : Одноголосый закадровый | Павел Санаев | VHSLanguage : RussianDefault : NoForced : No
Audio #5ID : 6Format : AC-3Format/Info : Audio Coding 3Mode extension : CM (complete main)Format settings, Endianness : BigCodec ID : A_AC3Duration : 1h 19mnBit rate mode : ConstantBit rate : 192 KbpsChannel(s) : 1 channelChannel positions : Front: CSampling rate : 48.0 KHzBit depth : 16 bitsCompression mode : LossyStream size : 109 MiB (1%)Title : Многоголосый закадровый | Канал "Дисней" | MonoLanguage : RussianDefault : NoForced : No
Audio #6ID : 7Format : DTSFormat/Info : Digital Theater SystemsMode : 16Format settings, Endianness : BigCodec ID : A_DTSDuration : 1h 19mnBit rate mode : ConstantBit rate : 1 509 KbpsChannel(s) : 6 channelsChannel positions : Front: L C R, Side: L R, LFESampling rate : 48.0 KHzBit depth : 24 bitsCompression mode : LossyStream size : 857 MiB (10%)Title : OriginalLanguage : EnglishDefault : NoForced : No
TextID : 8Format : UTF-8Codec ID : S_TEXT/UTF8Codec ID/Info : UTF-8 Plain TextTitle : SDHLanguage : EnglishDefault : NoForced : No
Menu00:00:00.000 : en:1. Opening Credits / A change in circumstances00:04:36.734 : en:2. No dreaming allowed00:06:39.356 : en:3. "My name is James"00:09:55.761 : en:4. A most mysterious man00:14:14.060 : en:5. Miraculous growth00:17:46.940 : en:6. A little leftover magic00:22:11.538 : en:7. "That's the life"00:24:12.993 : en:8. Peach on the move00:31:40.773 : en:9. Shark attack!00:39:07.053 : en:10. "Eating the peach"00:41:57.973 : en:11. Friends and enemies00:44:58.195 : en:12. A navigational error00:48:19.478 : en:13. The haunted shipwreck00:53:17.694 : en:14. Music of the soul00:55:21.276 : en:15. "Family"00:58:08.568 : en:16. The Rhinoceros01:00:55.068 : en:17. New York City01:04:36.289 : en:18. Legal Guardians01:09:13.314 : en:19. Reunion01:11:48.970 : en:20. Happily-ever-afters / End credits
Скриншоты

_________________
Показать сообщения:    

Текущее время: Сегодня 12:36

Часовой пояс: GMT



Вы не можете начинать темы
Вы не можете отвечать на сообщения
Вы не можете редактировать свои сообщения
Вы не можете удалять свои сообщения
Вы не можете голосовать в опросах
Вы не можете прикреплять файлы к сообщениям
Вы не можете скачивать файлы