Джейми у себя дома - Рождественский выпуск / Jamie at home christmas special [2007, Кулинарное шоу, DVB, RUS] :: Ивановский Торрент трекер
Важное объявление!
У Нас Все раздачи мультитрекерные, при нуле пиров в релизах, можете смело вставать на закачку!
Статистика раздачи
Размер:     |    Зарегистрирован:     |    Скачан:     |   
Нет
 
     
 
 
Автор Сообщение

HUNTER

Стаж:
4 года 11 месяцев
Сообщений:
66112

Репутация: 101

[+] [-]
Вне форума [Профиль] [ЛС]

Джейми у себя дома - Рождественский выпуск / Jamie at home christmas special
Страна: Соединённое Королевство Великобритании и Северной Ирландии
Тематика: Кулинарное шоу
Тип раздаваемого материала: Видеоурок
Продолжительность: 00:48:02
Год выпуска: 2007
Язык: Русский
Перевод: Любительcкий (одноголосый)
Язык субтитров: нет
Описание: Британский шеф-повар Джейми Оливер приготовит настоящий рождественский ужин, главным героем которого станет, конечно же, индейка.
Доп. информация:

Чистая запись с канала КухняТВ без перекодирования.

MediaInfo

Код:
General
ID                                       : 16 (0x10)
Complete name                            : E:\Jamie\Jamie.at.home.christmas.special.ts
Format                                   : MPEG-TS
File size                                : 1.00 GiB
Duration                                 : 48mn 1s
Overall bit rate mode                    : Variable
Overall bit rate                         : 2 994 Kbps
Video
ID                                       : 328 (0x148)
Menu ID                                  : 3 (0x3)
Format                                   : MPEG Video
Format version                           : Version 2
Format profile                           : Main@Main
Format settings, BVOP                    : Yes
Format settings, Matrix                  : Custom
Format settings, GOP                     : Variable
Codec ID                                 : 2
Duration                                 : 48mn 1s
Bit rate mode                            : Variable
Bit rate                                 : 2 652 Kbps
Maximum bit rate                         : 15.0 Mbps
Width                                    : 720 pixels
Height                                   : 576 pixels
Display aspect ratio                     : 4:3
Frame rate                               : 25.000 fps
Standard                                 : PAL
Color space                              : YUV
Chroma subsampling                       : 4:2:0
Bit depth                                : 8 bits
Scan type                                : Interlaced
Scan order                               : Top Field First
Compression mode                         : Lossy
Bits/(Pixel*Frame)                       : 0.256
Time code of first frame                 : 00:00:00:00
Time code source                         : Group of pictures header
Stream size                              : 911 MiB (89%)
Audio
ID                                       : 416 (0x1A0)
Menu ID                                  : 3 (0x3)
Format                                   : MPEG Audio
Format version                           : Version 1
Format profile                           : Layer 2
Codec ID                                 : 3
Duration                                 : 48mn 1s
Bit rate mode                            : Constant
Bit rate                                 : 192 Kbps
Channel count                            : 2 channels
Sampling rate                            : 48.0 KHz
Compression mode                         : Lossy
Stream size                              : 66.0 MiB (6%)
Качество: DVB
Формат: TS
Видео кодек: MPEG2
Аудио кодек: MP2
Видео: MPG2 720x576 (4:3) 25fps 2 652Kbps
Аудио: MPEG Audio 48000Hz 2ch 192 Kbps

Скриншоты.Яндекс


Скриншоты.Fastpic



_________________
Показать сообщения:    

Текущее время: Сегодня 19:31

Часовой пояс: GMT



Вы не можете начинать темы
Вы не можете отвечать на сообщения
Вы не можете редактировать свои сообщения
Вы не можете удалять свои сообщения
Вы не можете голосовать в опросах
Вы не можете прикреплять файлы к сообщениям
Вы не можете скачивать файлы