Важное объявление!
У Нас Все раздачи мультитрекерные, при нуле пиров в релизах, можете смело вставать на закачку!
 
Автор Сообщение

HUNTER

Стаж:
4 года 10 месяцев
Сообщений:
65506

Репутация: 101

[+] [-]
Вне форума [Профиль] [ЛС]

Джейми Оливер: Готовим вкусно и недорого / Save with Jamie's
Страна: Соединённое Королевство Великобритании и Северной Ирландии
Тематика: Кулинарное шоу
Тип раздаваемого материала: Видеоурок
Продолжительность: 00:46:18
Год выпуска: 2013
Язык: Русский
Перевод: Профессиональный (многоголосый, закадровый)
Язык субтитров: нет
Описание: Джейми Оливер продолжает свою просветительскую деятельность, цель которой - приучить людей питаться вкусно и полезно, при этом не тратя на еду много денег. Харизматичный повар научит зрителей делать правильный выбор в магазине, а также рационально распоряжаться своим временем и бюджетом.
Доп. информация:

Чистая запись с канала FoxLife HD без перекодирования.

MediaInfo

Код:
General
ID                                       : 0 (0x0)
Complete name                            : E:\Jamie\Save with Jamie HD\Save.With.Jamie.S01.E01.HDTV.ts
Format                                   : MPEG-TS
File size                                : 2.39 GiB
Duration                                 : 46mn 18s
Overall bit rate mode                    : Variable
Overall bit rate                         : 7 398 Kbps
Video
ID                                       : 301 (0x12D)
Menu ID                                  : 1 (0x1)
Format                                   : AVC
Format/Info                              : Advanced Video Codec
Format profile                           : Main@L4.0
Format settings, CABAC                   : Yes
Format settings, ReFrames                : 3 frames
Format settings, GOP                     : M=4, N=32
Codec ID                                 : 27
Duration                                 : 46mn 18s
Bit rate                                 : 6 839 Kbps
Width                                    : 1 920 pixels
Height                                   : 1 080 pixels
Display aspect ratio                     : 16:9
Frame rate                               : 25.000 fps
Standard                                 : Component
Color space                              : YUV
Chroma subsampling                       : 4:2:0
Bit depth                                : 8 bits
Scan type                                : Interlaced
Scan order                               : Top Field First
Bits/(Pixel*Frame)                       : 0.132
Stream size                              : 2.21 GiB (92%)
Color primaries                          : BT.709
Transfer characteristics                 : BT.709
Matrix coefficients                      : BT.709
Audio
ID                                       : 302 (0x12E)
Menu ID                                  : 1 (0x1)
Format                                   : MPEG Audio
Format version                           : Version 1
Format profile                           : Layer 2
Codec ID                                 : 3
Duration                                 : 46mn 18s
Bit rate mode                            : Constant
Bit rate                                 : 192 Kbps
Channel count                            : 2 channels
Sampling rate                            : 48.0 KHz
Compression mode                         : Lossy
Stream size                              : 63.6 MiB (3%)
Качество: HDTV
Формат: TS
Видео кодек: H.264
Аудио кодек: MP2
Видео: MPEG4 Video (H264) 1920x1080 25fps 6839 Kbps
Аудио: MPEG Audio 48000Hz stereo 192kbps [RU]

Скриншоты.Fastpic


Скриншоты.Яндекс



_________________
Показать сообщения:    

Текущее время: Сегодня 23:06

Часовой пояс: GMT



Вы не можете начинать темы
Вы не можете отвечать на сообщения
Вы не можете редактировать свои сообщения
Вы не можете удалять свои сообщения
Вы не можете голосовать в опросах
Вы не можете прикреплять файлы к сообщениям
Вы не можете скачивать файлы