Важное объявление!
У Нас Все раздачи мультитрекерные, при нуле пиров в релизах, можете смело вставать на закачку!
 
Автор Сообщение

HUNTER

Стаж:
4 года 10 месяцев
Сообщений:
65576

Репутация: 101

[+] [-]
Вне форума [Профиль] [ЛС]

Джейк и пираты Нетландии | Jake and the Never Land Pirates-
Год выпуска: 2011-2013
Страна: США
Жанр: Семейный, приключения
Продолжительность: ~ 16 х ~ 00:23:15 + 2 х ~ 00:46:45
Кол-во эпизодов: 1-18 из ??
Перевод: Дублированный
Субтитры: Нет-Режиссёр: Келли Уорд / Kelly Ward, Хауи Паркинс / Howy Parkins, Мики Коркоран / Mickey Corcoran-
Эй, там, на палубе! Поднять паруса! Отчаливаем от берегов Нетландии. Вместе с Джейком, Иззи, Кабби и попугаем Скалли, на борту надежного корабля «Быстрый» тебя ждут приключения в болотных топях и волшебных джунглях. Помогай пиратам и ищи потерянные сокровища. Но остерегайся Капитана Крюка! Вместе со своим верным помощником, Мистером Сми, Крюк надеется утащить у ребят сокровища. Чтобы проучить его, понадобится сплоченная команда, смекалистый ум и даже волшебная пыльца фей...-
Качество: DVDRip
Формат: AVI
Видеокодек: XviD
Аудиокодек: AC3
Видео: 720x400 (16:9), XViD 2000 Кбит/сек 25,000 fps / Бит/(Пиксели*Кадры): 0.278
Аудио: AC3 Russian 192 kbps 2.0 / 48 kHz | Дубляж-

Эпизоды

01. Hats Off to Hook!/Escape from Belch Mountain - Шляпы на крюк/Побег с бурлящей горы.
02. Hide the Hideout!/The Old Shell Game - Прячем убежище!/Старинная игра в ракушки.
03. Izzy's Pirate Puzzle/The Never Land Games - Пиратская головоломка Иззи!/Нетландские игры!
04. Off the Hook/Never Say Never! - Погоня!/Никогда не говори "Никогда"!
05. Cubby's Sunken Treasure/Cubby's Goldfish - Затонувшее сокровище Кабби!/Золотая рыбка Кабби.
06. Happy Hookday!/No Returns! - Счастливого дня Крюка/Возврата нет!
07. The Sky's the Limit/Bucky Makes a Splash - Для нас преград нет!/"Быстрый" производит фурор!
08. Peter Pan returns - Питер Пэн вернулся.
09. The Elephant Surprise!/Jake's Jungle Groove - Слоновий сюрприз/Танцы Джейка в джунглях
10. The Pirate Pup!/Pirate Rock! - Пиратский щенок!/Пиратский рок!
11. The Sword and the Stone/Jake's Home Run! - Сабля и камень/Победа Джейка!
12. The Pirate Princess/The Rainbow Wand - Принцесса пиратов/Радостная волшебная палочка.
13. Mama Hook Knows Best/Pixie Dust Away! - Надо слушать маму/ День пыльцы фей.
14. Jake Saves Bucky - Джейк спасает Быстрый
15. Peter's Musical Pipes/The Never Night Star - Музыкальные дудочки Питера/Вечно Сияющая звезда
16. Captain Hook's Hooks/Mr. Smee's Pet- Крюки капитана Крюка/Питомец мистера Сми
17. Race - Around Rock!/Captain Hook is missing! - Скала Круговые гонки!/Капитан Крюк пропал!
18. Captain Hook's Lagoon/Undersea Bucky! - Лагуна капитана Крюка/Подводный Быстрый!
-

MediaInfo

Общее
Полное имя : D:\Downloads\Djeyk.i.piraty.Netlandii.2011.DVDRip\01.avi
Формат : AVI
Формат/Информация : Audio Video Interleave
Размер файла : 368 Мбайт
Продолжительность : 23 м.
Общий поток : 2201 Кбит/сек
Программа кодирования : VirtualDubMod 1.5.10.3 | www.virtualdub-fr.org || (build 2550/release)
Библиотека кодирования : VirtualDubMod build 2550/release
Видео
Идентификатор : 0
Формат : MPEG-4 Visual
Профиль формата : Advanced Simple@L5
Параметр BVOP формата : 1
Параметр QPel формата : Нет
Параметр GMC формата : Без точки перехода
Параметр матрицы формата : Выборочная
Идентификатор кодека : XVID
Идентификатор кодека/Подсказка : XviD
Продолжительность : 23 м.
Битрейт : 2000 Кбит/сек
Ширина : 720 пикс.
Высота : 400 пикс.
Соотношение сторон : 16:9
Частота кадров : 25,000 кадр/сек
Цветовое пространство : YUV
Подвыборка цветности : 4:2:0
Битовая глубина : 8 бит
Тип развёртки : Прогрессивная
Метод сжатия : С потерями
Бит/(Пиксели*Кадры) : 0.278
Размер потока : 335 Мбайт (91%)
Библиотека кодирования : XviD 65
Аудио
Идентификатор : 1
Формат : AC-3
Формат/Информация : Audio Coding 3
Профиль формата : Dolby Digital
Расширение режима : CM (complete main)
Идентификатор кодека : 2000
Продолжительность : 23 м.
Вид битрейта : Постоянный
Битрейт : 192 Кбит/сек
Каналы : 2 канала
Расположение каналов : Front: L R
Частота : 48,0 КГц
Битовая глубина : 16 бит
Метод сжатия : С потерями
Размер потока : 32,1 Мбайт (9%)
Выравнивание : Разделение по промежуткам
Продолжительность промежутка : 40 мс. (1,00 видеокадр)
Время предзагрузки промежутка : 500 ms
-

Скриншоты


_________________
Показать сообщения:    

Текущее время: Сегодня 08:55

Часовой пояс: GMT



Вы не можете начинать темы
Вы не можете отвечать на сообщения
Вы не можете редактировать свои сообщения
Вы не можете удалять свои сообщения
Вы не можете голосовать в опросах
Вы не можете прикреплять файлы к сообщениям
Вы не можете скачивать файлы