Важное объявление!
У Нас Все раздачи мультитрекерные, при нуле пиров в релизах, можете смело вставать на закачку!
 
Автор Сообщение

HUNTER

Стаж:
4 года 10 месяцев
Сообщений:
65561

Репутация: 101

[+] [-]
Вне форума [Профиль] [ЛС]

Джастин и рыцари доблести / Justin and the Knights of Valour / Justin y La Espada Del Valor
Страна : Испания
Жанр : мультфильм, приключения
Продолжительность : 01:35:48
Год выпуска : 2013
Перевод : Профессиональный (дублированный)
Оригинальная аудио-дорожка : есть (Испанская)
Русские субтитры : есть
Режиссёр : Мануэль Сисилия / Manuel Sicilia
Роли озвучивали: Фредди Хаймор, Сирша Ронан, Марк Стронг, Дэвид Уоллиамс, Антонио Бандерас, Альфред Молина, Джули Уолтерс, Оливия Уильямс, Чарльз Дэнс, Руперт Эверетт
-

-
Описание : Действие мультфильма разворачивается в магическом мире, о котором мечтает каждый ребёнок. Джастин мечтает стать рыцарем, но на его пути появляется много препятствий бюрократического характера. Даже отец Джастина против рыцарства и хочет, чтобы сын стал придворным служащим. Тогда мальчик, обуреваемый желанием стать настоящим доблестным Рыцарем, сбегает из дома в поисках приключений. По дороге он знакомится с прекрасной девушкой — Талией, вдохновляющей его на новые подвиги, и встречает мудрых рыцарей-наставников, которые обучают его рыцарскому мастерству. Но хватит ли Джастину полученных знаний для того, чтобы справиться с угрозой, которая нависла над его Королевством? Сумеет ли мальчик преодолеть все препятствия и достичь своей мечты?
Автор рипа и релиза : Страник 2.0
-

Качество : BDRip 1080p (Исходник: BDRemux, спасибо ExKinoRay)
Формат : MKV
Видео : AVC, 1920x804 (2.35:1), 23.976 fps, 5669 kbps
Аудио 1 : Русский, AC3, 48.0 kHz, 6 ch, 448 kbps (Дублированный)
Аудио 2 : Испанский, AC3, 48.0 kHz, 6 ch, 384 kbps (Оригинал)
Субтитры : Русские, Английские (srt)
-

MediaInfo

General Unique ID : 211143931481960036308670170492891936788 (0x9ED8D78EBB86351090D9C9B45295B814) Complete name : E:.Torrent_2.Justin and the Knights of Valour (2013, BDRip 1080p, Rus Spa+Sub) [Stranik 2.0].mkv Format : Matroska File size : 4.35 GiB Duration : 1h 35mn Overall bit rate : 6 501 Kbps Movie name : Planet 51 (2009) BDRip [720p] / Release by HQ-ViDEO Encoded date : UTC 2014-03-08 16:21:15 Writing application : mkvmerge v5.5.0 ('Healer') built on Apr 6 2012 21:43:24 Writing library : libebml v1.2.3 + libmatroska v1.3.0
Video #1 ID : 1 Format : AVC Format/Info : Advanced Video Codec Format profile : High@L4.1 Format settings, CABAC : Yes Format settings, ReFrames : 4 frames Format settings, GOP : M=4, N=14 Codec ID : V_MPEG4/ISO/AVC Duration : 1h 35mn Bit rate mode : Variable Bit rate : 5 669 Kbps Maximum bit rate : 14.0 Mbps Width : 1 920 pixels Height : 804 pixels Display aspect ratio : 2.35:1 Frame rate : 23.976 fps Color space : YUV Chroma subsampling : 4:2:0 Bit depth : 8 bits Scan type : Progressive Bits/(Pixel*Frame) : 0.153 Stream size : 3.71 GiB (85%) Writing library : x264 core 138 r2358 9e941d1 Encoding settings : cabac=1 / ref=5 / deblock=1:1:1 / analyse=0x3:0x113 / me=hex / subme=7 / psy=1 / psy_rd=0.40:0.00 / mixed_ref=1 / me_range=16 / chroma_me=1 / trellis=1 / 8x8dct=1 / cqm=0 / deadzone=21,11 / fast_pskip=1 / chroma_qp_offset=-2 / threads=3 / lookahead_threads=1 / sliced_threads=0 / slices=4 / nr=0 / decimate=1 / interlaced=0 / bluray_compat=1 / constrained_intra=0 / bframes=3 / b_pyramid=1 / b_adapt=1 / b_bias=0 / direct=1 / weightb=1 / open_gop=1 / weightp=1 / keyint=240 / keyint_min=1 / scenecut=40 / intra_refresh=0 / rc_lookahead=40 / rc=2pass / mbtree=1 / bitrate=5669 / ratetol=1.0 / qcomp=0.60 / qpmin=0 / qpmax=69 / qpstep=4 / cplxblur=20.0 / qblur=0.5 / vbv_maxrate=14000 / vbv_bufsize=14000 / nal_hrd=vbr / ip_ratio=1.40 / aq=1:0.60 Language : English
Audio #2 ID : 2 Format : AC-3 Format/Info : Audio Coding 3 Mode extension : CM (complete main) Codec ID : A_AC3 Duration : 1h 35mn Bit rate mode : Constant Bit rate : 448 Kbps Channel(s) : 6 channels Channel positions : Front: L C R, Side: L R, LFE Sampling rate : 48.0 KHz Bit depth : 16 bits Compression mode : Lossy Stream size : 307 MiB (7%) Title : DUB Language : Russian
Audio #3 ID : 3 Format : AC-3 Format/Info : Audio Coding 3 Mode extension : CM (complete main) Codec ID : A_AC3 Duration : 1h 35mn Bit rate mode : Constant Bit rate : 384 Kbps Channel(s) : 6 channels Channel positions : Front: L C R, Side: L R, LFE Sampling rate : 48.0 KHz Bit depth : 16 bits Compression mode : Lossy Delay relative to video : 24ms Stream size : 263 MiB (6%) Title : Original Language : Spanish
Text #4 ID : 4 Format : UTF-8 Codec ID : S_TEXT/UTF8 Codec ID/Info : UTF-8 Plain Text Language : Russian
Text #5 ID : 5 Format : UTF-8 Codec ID : S_TEXT/UTF8 Codec ID/Info : UTF-8 Plain Text Language : English

Скриншоты



Отличия от других раздач

intellect - http://rutracker.org/forum/viewtopic.php?t=4613482 - тот 720p, мой 1080p
Другие раздачи мультфильма

_________________
Показать сообщения:    

Текущее время: Сегодня 06:59

Часовой пояс: GMT



Вы не можете начинать темы
Вы не можете отвечать на сообщения
Вы не можете редактировать свои сообщения
Вы не можете удалять свои сообщения
Вы не можете голосовать в опросах
Вы не можете прикреплять файлы к сообщениям
Вы не можете скачивать файлы