Ивановский Торрент трекер
Яндекс.Погода
 

[Цитировать]
HUNTER

- -Джамайка -
Год выпуска: 2012
Страна: Украина , Россия
Жанр: мелодрама
Продолжительность: 00:45:21
Кол-во серий: 1-88 из 90
Перевод: Оригинал
Субтитры: отсутствуют-Режиссер: Игорь Забара, Олег Масленников
Сценарий: Татьяна Гнедаш, Григорий Ховрах, Елена Жданова
Продюсер: Валентин Опалев, Елена Косенко, Игорь Соколовский
Оператор: Николай Смолянкин, Михаил Мураткин
Композитор: Андрей Кравченко
Художник: Владимир Павлюх, Оксана Орищенко
Монтаж: Наталья Лебеда-В ролях: Людмила Свитова (Наташа «Джамайка»), Дарья Повереннова (Виктория), Максим Радугин (Сергей), Елена Баламутова (Катя), Наталья Рудова (Габи), Мария Луговая (Марго), Екатерина Кистень (Нинка), Виктория Смачелюк (Анна), Елена Бондарева-Репина (Сима), Иван Шабалтас (Петр)
-Описание: Главная героиня сериала Наташа по прозвищу Джамайка живет в крайней бедности, всю жизнь называет мамой чужую женщину и ничего не знает о своем настоящем происхождении. Чтобы как-то сводить концы с концами, девушка поет на улицах и мечтает стать певицей. Но у жизни свои законы. В 17 лет, по лживому обвинению, ее арестовывают. Во время расследования дела Джамайка влюбляется в следователя. Тот не может ответить взаимностью, ведь у него есть молодая жена и ребенок. Он отказывается вести дело Джамайки. Лишившись шанса на объективное расследование, Наташа попадает в тюрьму. Герои встретятся через несколько лет, снова вспыхнет страсть, и снова между ними будет стоять женщина…-Качество: SATRip
Формат: AVI
Видео кодек: XviD
Аудио кодеk: MP3
Видео: 704x384 (1.83:1), 25 fps, XviD MPEG-4 ~1665 kbps avg, 0.25 bit/pixel
Аудио: Аудио #1: 48 kHz, MPEG Layer 3, 2 ch, ~192.00 kbps avg


-

Раздача ведётся путём добавления новых серий!


Внимание!Раздача ведётся путём добавления новых серий; при каждом добавлении создётся новый торрент. Чтобы начать докачку новой серии, пользователям необходимо сделать следующее:
(1) остановить скачивание,
(2) удалить старый торрент у себя из клиента (старые серии удалять не надо),
(3) скачать новый торрент и запустить его у себя в клиенте вместо старого, при этом указать клиенту путь в старую папку куда и должно происходить скачивание новых серий.
Ваш клиент при этом должен произвести хеширование (проверку) старой папки (если не производит сам - помогите ему сделать это), и будет докачивать только те серии которых у вас ещё нет. Старые серии при этом не удаляются, а продолжают раздаваться!
Eсли вы уже удалили старые серии, то предотвратить повторную закачку старых серий можно, отжав галочку в соответсвующих местах при запуске нового торрента. По возможности, желательно не удалять старые серии как можно дольше чтобы релизёр не столько продолжал раздавать старые серии, а смог сконцентрироваться на новых

МедиаИнфо

Код: copyText_writeLink('this.parentNode.parentNode.nextSibling.nextSibling'); General
Complete name : Dzhamajka.(01.seriya.iz.90).2012.XviD.SATRip.simkanetua.avi
Format : AVI
Format/Info : Audio Video Interleave
File size : 606 MiB
Duration : 45mn 21s
Overall bit rate : 1 867 Kbps
Writing application : VirtualDubModRus 1.5.10.2 (build 2542/release)
Writing library : VirtualDubMod build 2542/release
Video
ID : 0
Format : MPEG-4 Visual
Format profile : Advanced Simple@L5
Format settings, BVOP : Yes
Format settings, QPel : No
Format settings, GMC : No warppoints
Format settings, Matrix : Default (H.263)
Muxing mode : Packed bitstream
Codec ID : XVID
Codec ID/Hint : XviD
Duration : 45mn 21s
Bit rate : 1 665 Kbps
Width : 704 pixels
Height : 384 pixels
Display aspect ratio : 16:9
Frame rate : 25.000 fps
Color space : YUV
Chroma subsampling : 4:2:0
Bit depth : 8 bits
Scan type : Progressive
Bits/(Pixel*Frame) : 0.246
Stream size : 540 MiB (89%)
Writing library : XviD 64
Audio
ID : 1
Format : MPEG Audio
Format version : Version 1
Format profile : Layer 3
Mode : Joint stereo
Codec ID : 55
Codec ID/Hint : MP3
Duration : 45mn 21s
Bit rate mode : Constant
Bit rate : 192 Kbps
Channel(s) : 2 channels
Sampling rate : 48.0 KHz
Stream size : 62.3 MiB (10%)
Alignment : Split accross interleaves
Interleave, duration : 40 ms (1.00 video frame)
Interleave, preload duration : 500 ms
- -

фото со съемок (20)




- -ВНИМАНИЕ! ТОРРЕНТ ПЕРЕЗАЛИТ! ДОБАВЛЕНА 88 СЕРИЯ.


Показать сообщения:    

Текущее время: 12-Дек 21:53

Часовой пояс: UTC ± 0


Вы не можете начинать темы
Вы не можете отвечать на сообщения
Вы не можете редактировать свои сообщения
Вы не можете удалять свои сообщения
Вы не можете голосовать в опросах
Вы не можете прикреплять файлы к сообщениям
Вы не можете скачивать файлы

!ВНИМАНИЕ!
Сайт не предоставляет электронные версии произведений, а занимается лишь коллекционированием и каталогизацией ссылок, присылаемых и публикуемых на форуме нашими читателями. Если вы являетесь правообладателем какого-либо представленного материала и не желаете, чтобы ссылка на него находилась в нашем каталоге, свяжитесь с нами, и мы незамедлительно удалим ее. Файлы для обмена на трекере предоставлены пользователями сайта, и администрация не несет ответственности за их содержание. Просьба не заливать файлы, защищенные авторскими правами, а также файлы нелегального содержания!