Важное объявление!
У Нас Все раздачи мультитрекерные, при нуле пиров в релизах, можете смело вставать на закачку!
Статистика раздачи
Размер:     |    Зарегистрирован:     |    Скачан:     |   
Нет
 
     
 
 
Автор Сообщение

HUNTER

Стаж:
5 лет
Сообщений:
67935

Репутация: 101

[+] [-]
Вне форума [Профиль] [ЛС]

Деффчонки«Всё, что ты хотел знать о девчонках, но боялся спросить»-

Год выпуска: 2013
Страна: Россия
Жанр: комедия
Продолжительность: 00:23:41
Перевод: Оригинал
Режиссер: Сергей Корягин, Ольга Френкель, Нигина Сайфуллаева
Сценарий: Ольга Френкель, Сергей Корягин, Вера Шер, ...
Продюсер: Роман Петренко, Александр Дулерайн, Евгений Никишов, ...
Оператор: Олег Кириченко
Композитор: Алексей Воробьев, Иван Лубенников
Художник: Анастасия Нефедова, Сергей Щепилов, Ирина Милакова, ...
Монтаж: Сергей Газиев, Зоя Морозова, Степан Гордеев
В ролях: Галина Боб (Маша «Бобылыч» Бобылкина, официантка), Анастасия Денисова (Катя «Пална» Швиммер, секретарша), Полина Максимова (Ольга «Леля» Ржевская, красотка-содержанка), Таисия Вилкова (Василиса «Васька» Бобылкина, младшая сестра Маши), Родион Юрин (Игорь Михайлович, начальник Кати), Наталья Унгард (Галина Ивановна, бухгалтер), Александр Серов (Макс, коллега Кати), Алексей Воробьев (Сергей Звонарев)
Описание: Героини «Деффчонок» — четыре подруги: мечтательная неудачница Маша, ее 16-летняя сестра Василиса, очкастый офисный планктон Катя и профессиональная блондинка Леля. Каждая хочет от жизни своего: успешной карьеры, правильного замужества, вселенской популярности…Способов стать счастливой миллион! Одна беда — в жизни все гораздо сложнее, чем в мечтах. Если ты попала на прослушивание к крутому продюсеру, это еще не значит, что тебя сделают звездой. Если заклеила депутата с Рублевки — далеко не факт, что он не слиняет от тебя в Лондон. Бурные ночи с поп-идолом еще не дают гарантии, что он захочет на тебе жениться. А когда ты влюбляешься в начальника, будь готова к тому, что он начнет играть твоими чувствами ради бизнеса.Сложность еще и в том, что подруги снимают одну на всех квартиру. Ведь все они приехали из Саратова, и родственников в столице у них нет. Жить вчетвером в одном шалаше — вот настоящая беда, в которой познаются друзья. Или это счастье, а не беда вовсе? Ответ на этот и еще 999 вопросов предстоит найти нашим героиням.
Премьера (РФ): 9 апреля 2012
Релиз на DVD: 18 декабря 2012, «Флагман-Трейд», ...-- --Качество: SATRip
Формат: AVI
Видео кодек: XviD
Аудио кодеk: MP3
Видео: 720x400 (16:9), 25.000 fps, XviD, 1 495 Kbps
Аудио: Аудио #1: MP3, 128 Kbps, 48.0 KHz, 2 ch

МедиаИнфо

Код: copyText_writeLink('this.parentNode.parentNode.nextSibling.nextSibling');
Код:
General
Complete name                    : Deffchonki.(3.sezon.01.serija).2013.SATRip.avi
Format                           : AVI
Format/Info                      : Audio Video Interleave
File size                        : 277 MiB
Duration                         : 23mn 41s
Overall bit rate                 : 1 632 Kbps
Writing application              : VirtualDubMod 1.5.10.2 (build 2540/release)
Writing library                  : VirtualDub build 29808/release
Video
ID                               : 0
Format                           : MPEG-4 Visual
Format profile                   : Advanced Simple@L5
Format settings, BVOP            : Yes
Format settings, QPel            : No
Format settings, GMC             : No warppoints
Format settings, Matrix          : Default (MPEG)
Codec ID                         : XVID
Codec ID/Hint                    : XviD
Duration                         : 23mn 41s
Bit rate                         : 1 495 Kbps
Width                            : 720 pixels
Height                           : 400 pixels
Display aspect ratio             : 16:9
Frame rate                       : 25.000 fps
Color space                      : YUV
Chroma subsampling               : 4:2:0
Bit depth                        : 8 bits
Scan type                        : Progressive
Bits/(Pixel*Frame)               : 0.208
Stream size                      : 253 MiB (92%)
Writing library                  : XviD 1.2.1 (UTC 2008-12-04)
Audio
ID                               : 1
Format                           : MPEG Audio
Format version                   : Version 1
Format profile                   : Layer 3
Codec ID                         : 55
Codec ID/Hint                    : MP3
Duration                         : 23mn 40s
Bit rate mode                    : Constant
Bit rate                         : 128 Kbps
Channel(s)                       : 2 channels
Sampling rate                    : 48.0 KHz
Stream size                      : 21.7 MiB (8%)
Alignment                        : Aligned on interleaves
Interleave, duration             : 40 ms (1.00 video frame)
Interleave, preload duration     : 504 ms
Writing library                  : LAME3.98r
Encoding settings                : -m s -V 4 -q 2 -lowpass 17 -b 128

Знаете ли Вы, что...

· Актрис для проекта отбирали почти год.
· Во время съемки одной из сцен Настя Денисова должны была уронить мышь в аквариум. Чтобы не мучить грызуна, сцену репетировали без участия зверя. А после режиссерской команды «Начали!» все пошло не так. Планы мыши расходились со сценарием: в воду падать она никак не хотела и изо всех сил держалась за Настину руку. Договориться с животным не удалось, а потому Насте пришлось сделать вид, будто мышь ее укусила, и от этого девушка рефлекторно бросила грызуна в аквариум. Кстати, мышей актриса не боится.
· Был случай, когда режиссер Сергей Корягин настолько устал, что отдал команды «Мотор!», «Начали!» и заснул. Потом очнулся, дождался конца сцены и, спросонья подумав, что это была репетиция, снова скомандовал «Начали!». Девчонки вспоминают эту историю до сих пор, а Галина Боб жалеет, что в тот день не присутствовала на площадке.
· Галина Боб уже имела опыт работы в проектах ТНТ. Незадолго до участия в «Деффчонках» она была актрисой скетчкома «Женская лига».
· Таисия Вилкова не является родственницей актрисы Екатерины Вилковой. Девушки просто однофамилицы.
· Полина Максимова — главная заводила на съемочной площадке. Как и ее героиня, она постоянно веселит девчонок. По их признанию, с Полиной никогда не бывает скучно.
· Изначально Таисии Вилковой перед съемками хотели покрасить прядь волос в яркий (розовый или зеленый) цвет, чтобы она еще больше походила на unisex-подростка, мечтающего о звездной карьере. Но потом от этой идеи отошли.
· «Съемочный» гардероб Лели насчитывает более 100 платьев. Из них 90 — короткие. И это только те, которые были отобраны костюмерами.
· Высота самых высоких каблуков туфель, в которых ходила Ольга Ржевская, равняется 30 см.

Скриншоты




-Источник:

_________________
Показать сообщения:    

Текущее время: Сегодня 06:58

Часовой пояс: GMT



Вы не можете начинать темы
Вы не можете отвечать на сообщения
Вы не можете редактировать свои сообщения
Вы не можете удалять свои сообщения
Вы не можете голосовать в опросах
Вы не можете прикреплять файлы к сообщениям
Вы не можете скачивать файлы