Важное объявление!
У Нас Все раздачи мультитрекерные, при нуле пиров в релизах, можете смело вставать на закачку!
 
Автор Сообщение

Game

Стаж:
4 года 2 месяца
Сообщений:
2074

Репутация: 107

[+] [-]
Вне форума [Профиль] [ЛС]

Детские игры / Выходи играть / Come Out and Play
Страна: Мексика
Жанр: ужасы
Год выпуска: 2012
Продолжительность: 01:26:45
Перевод: Одноголосый закадровый [den904] - перевод на русский язык [МЕГАПЫХАРЬ]
Cубтитры: английские (вшитые, на испанскую речь)
Режиссер: Макинов / Makinov
В ролях: Даниэль Хименес Качо, Эбон Мосс-Бакрак , Винесса Шоу
Описание: Молодая супружеская пара, Бет и Фрэнсис, находясь в отпуске, отправляются на красивый, но очень отдаленный остров. Бет беременна, и молодожены хотят насладиться последним своим совместным отдыхом перед рождением ребенка. По прибытию они замечают, что, несмотря на огромное количество местных детей, взрослые здесь практически отсутствуют. Первоначально они списывают этот факт на недавно прошедший фестиваль, но очень скоро понимают, что есть другое, более зловещее всему объяснение. И теперь они оба должны противостоять террору и принимать опасные и сложные решения, чтобы попытаться убраться с этого острова живыми.
Сэмпл: http://sendfile.su/775866
Качество видео: DVDScreener
Формат видео: AVI
Видео: 640x272 (2.35:1), 24 fps, XviD MPEG-4 ~926 kbps avg, 0.22 bit/pixel
Аудио: 48 kHz, MPEG Layer 3, 2 ch, ~192.00 kbps avg

MediaInfo

General
Complete name : K:\Моё\Come.Out.And.Play.DVDScr. СПАМ
Format : AVI
Format/Info : Audio Video Interleave
File size : 700 MiB
Duration : 1h 26mn
Overall bit rate : 1 128 Kbps
Writing application : VirtualDubMod 1.5.10.3 | www.virtualdub-fr.org || (build 2550/release)
Writing library : VirtualDubMod build 2550/release
Video
ID : 0
Format : MPEG-4 Visual
Format profile : Advanced Simple@L5
Format settings, BVOP : 2
Format settings, QPel : No
Format settings, GMC : No warppoints
Format settings, Matrix : Default (H.263)
Muxing mode : Packed bitstream
Codec ID : XVID
Codec ID/Hint : XviD
Duration : 1h 26mn
Bit rate : 926 Kbps
Width : 640 pixels
Height : 272 pixels
Display aspect ratio : 2.35:1
Frame rate : 24.000 fps
Color space : YUV
Chroma subsampling : 4:2:0
Bit depth : 8 bits
Scan type : Progressive
Compression mode : Lossy
Bits/(Pixel*Frame) : 0.222
Stream size : 575 MiB (82%)
Writing library : XviD 64
Audio
ID : 1
Format : MPEG Audio
Format version : Version 1
Format profile : Layer 3
Codec ID : 55
Codec ID/Hint : MP3
Duration : 1h 26mn
Bit rate mode : Constant
Bit rate : 192 Kbps
Channel(s) : 2 channels
Sampling rate : 48.0 KHz
Compression mode : Lossy
Stream size : 119 MiB (17%)
Alignment : Aligned on interleaves
Interleave, duration : 42 ms (1.00 video frame)
Interleave, preload duration : 504 ms

Скриншот c названием фильма

Скриншоты




Релиз от:
Показать сообщения:    

Текущее время: Сегодня 06:07

Часовой пояс: GMT



Вы не можете начинать темы
Вы не можете отвечать на сообщения
Вы не можете редактировать свои сообщения
Вы не можете удалять свои сообщения
Вы не можете голосовать в опросах
Вы не можете прикреплять файлы к сообщениям
Вы не можете скачивать файлы
Наши партнеры: интернет магазин Ивановского трикотажа textilla.ru