Детская энциклопедия: "Из чего это сделано?" [2008 г., Детский, обучающий, DVDRip] :: Ивановский Торрент трекер
Важное объявление!
У Нас Все раздачи мультитрекерные, при нуле пиров в релизах, можете смело вставать на закачку!
Статистика раздачи
Размер:     |    Зарегистрирован:     |    Скачан:     |   
Нет
 
     
 
 
Автор Сообщение

HUNTER

Стаж:
4 года 11 месяцев
Сообщений:
66112

Репутация: 101

[+] [-]
Вне форума [Профиль] [ЛС]

-Детская энциклопедия: "Из чего это сделано?"-

Год выпуска: 2008
Страна: США
Сайт производителя: не известен
Тематика: Детский, обучающий
Тип материала: обучающее видео-Продолжительность: 01:51:59
Автор: не известен-Язык: Русский - Профессиональный двухголосый
Субтитры: нет-Описание: Твои родители слушали музыку на виниловых пластинках. Бабушка с дедушкой смотрели кино благодаря изобретению волшебного материала, из которого была сделана твоя первая погремушка и воздушный шарик. Из этого материала сделан и рисунок на твоем скейтборде, и даже подошвы твоих замечательных кроссовок!А что будет, если этот материал соединить со стеклом? Ты не поверишь, но лодка, на которой ты катался вместе с отцом летом и которую ты потом нарисовал в своем альбоме, изготовлена именно из этого материала! Да, кстати... а из чего сделаны страницы твоего альбома и... твоего любимого комикса? И какое отношение все это имеет к фейерверку в честь твоего дня рождения, который ты так ждешь? Смотри серию Детской энциклопедии "Из чего это сделано?" и ты убедишься, что звездное небо гораздо ближе, чем ты видишь его сквозь стекло своего окна. Не переставай удивляться, а мы поможем ответить тебе на все твои вопросы!-Качество: DVDRip
Формат: AVI
Видео кодек: XviD
Аудио кодек: AC3
Видео: 688x512 (1.34:1), 25 fps, XviD MPEG-4 ~1700 kbps avg, 0.19 bit/pixel
Аудио: 48 kHz, AC3 Dolby Digital, 2/0 (L,R) ch, ~192.00 kbps avg-

MediaInfo

Код: copyText_writeLink('this.parentNode.parentNode.nextSibling.nextSibling'); General
Complete name : D:\обучение 25,12\Новая папка\Detskaya.enciklopediya.Iz.chego.eto.sdelano.(8.serij)\Detskaya.enciklopediya.Iz.chego.eto.sdelano.01.serija.iz.8.avi
Format : AVI
Format/Info : Audio Video Interleave
File size : 167 MiB
Duration : 14mn 0s
Overall bit rate : 1 663 Kbps
Writing library : VirtualDub build 29808/release
Video
ID : 0
Format : MPEG-4 Visual
Format profile : Advanced Simple@L5
Format settings, BVOP : 1
Format settings, QPel : No
Format settings, GMC : No warppoints
Format settings, Matrix : Default (H.263)
Muxing mode : Packed bitstream
Codec ID : XVID
Codec ID/Hint : XviD
Duration : 14mn 0s
Bit rate : 1 461 Kbps
Width : 688 pixels
Height : 512 pixels
Display aspect ratio : 4:3
Frame rate : 25.000 fps
Color space : YUV
Chroma subsampling : 4:2:0
Bit depth : 8 bits
Scan type : Progressive
Compression mode : Lossy
Bits/(Pixel*Frame) : 0.166
Stream size : 146 MiB (88%)
Writing library : XviD 1.1.0 (UTC 2005-11-22)
Audio
ID : 1
Format : AC-3
Format/Info : Audio Coding 3
Mode extension : CM (complete main)
Format settings, Endianness : Big
Codec ID : 2000
Duration : 14mn 0s
Bit rate mode : Constant
Bit rate : 192 Kbps
Channel(s) : 2 channels
Channel positions : Front: L R
Sampling rate : 48.0 KHz
Bit depth : 16 bits
Compression mode : Lossy
Stream size : 19.2 MiB (12%)
Alignment : Aligned on interleaves
Interleave, duration : 40 ms (1.00 video frame)
Interleave, preload duration : 512 ms
- -

_________________
Показать сообщения:    

Текущее время: Сегодня 00:33

Часовой пояс: GMT



Вы не можете начинать темы
Вы не можете отвечать на сообщения
Вы не можете редактировать свои сообщения
Вы не можете удалять свои сообщения
Вы не можете голосовать в опросах
Вы не можете прикреплять файлы к сообщениям
Вы не можете скачивать файлы