Ивановский Торрент трекер
Яндекс.Погода
 

[Цитировать]
димитри37

Детсадовский Полицейский / Kindergarten Cop
Страна: США
Жанр: боевик, комедия
Год выпуска: 1990
Продолжительность: 01:50:39
Перевод: Профессиональный (многоголосый закадровый) НТВ
Перевод 2: Профессиональный (многоголосый закадровый) ОРТ
Перевод 3: Профессиональный (многоголосый закадровый) ТНТ
Перевод 4: Профессиональный (двухголосый закадровый) Премьер Видео Фильм
Перевод 5: Авторский (одноголосый закадровый) Павел Прямостанов
Перевод 6: Одноголосый (закадровый) "Дохаловоподобный"
Cубтитры: нет
Режиссер: Айвен Райтман / Ivan Reitman
В ролях: Арнольд Шварценеггер, Пенелопа Энн Миллер, Памела Рид, Линда Хант, Ричард Тайсон, Кэррол Бейкер, Кэти Мориарти, Джозеф Казинс, Кристиан Казинс, Парк Овералл
Описание: Детектив Джон Кимбл, ветеран «грязных улиц» Лос-Анджелеса, готов справиться с кем угодно. Но для того чтобы заманить в ловушку хитрого преступника, ему приходится устроиться воспитателем в детский сад. И вот когда он завоевывает уважение малышей и любовь прекрасной учительницы, ему предстоит схватка с преступником.

Качество видео: HDTVRip
Формат видео: AVI
Видео: XviD, 720x400 (16:9), 23.976 fps, 2128 kbps avg
Аудио: AC3, 48.0 khz, 2 ch, 192 kbps (НТВ VHSRip)
Аудио 2: AC3, 48.0 khz, 2 ch, 192 kbps (ОРТ SATRip)
Аудио 3: AC3, 48.0 khz, 2 ch, 192 kbps (ТНТ TVRip)
Аудио 4: AC3, 48.0 khz, 2 ch, 192 kbps (Премьер Видео Фильм VHSRip) отдельно
Аудио 5: AC3, 48.0 khz, 2 ch, 192 kbps (Павел Прямостанов VHSRip) отдельно
Аудио 6: AC3, 48.0 khz, 2 ch, 192 kbps ("Дохаловоподобный" VHSRip) отдельно

MediaInfo

Общее
Полное имя : E:\Альберт\Downloads\Детсадовский Полицейский\Детсадовский Полицейский.avi
Формат : AVI
Формат/Информация : Audio Video Interleave
Профиль формата : OpenDML
Размер файла : 2,11 Гбайт
Продолжительность : 1 ч. 50 м.
Общий поток : 2729 Кбит/сек
Программа кодирования : VirtualDubMod 1.5.10.3 (build 2550/release)
Библиотека кодирования : VirtualDubMod build 2550/release
Видео
Идентификатор : 0
Формат : MPEG-4 Visual
Профиль формата : Advanced Simple@L5
Параметр BVOP формата : 2
Параметр QPel формата : Да
Параметр GMC формата : Без точки перехода
Параметр матрицы формата : Default (H.263)
Идентификатор кодека : XVID
Идентификатор кодека/Подсказка : XviD
Продолжительность : 1 ч. 50 м.
Битрейт : 2128 Кбит/сек
Ширина : 720 пикселей
Высота : 400 пикселей
Соотношение сторон : 16:9
Частота кадров : 23,976 кадра/сек
Цветовое пространство : YUV
Субдискретизация насыщенности : 4:2:0
Битовая глубина : 8 бит
Тип развёртки : Прогрессивная
Метод сжатия : С потерями
Бит/(Пиксели*Кадры) : 0.308
Размер потока : 1,64 Гбайт (78%)
Библиотека кодирования : XviD 1.2.1 (UTC 2008-12-04)
Аудио #1
Идентификатор : 1
Формат : AC-3
Формат/Информация : Audio Coding 3
Расширение режима : CM (complete main)
Параметр Endianness формата : Big
Идентификатор кодека : 2000
Продолжительность : 1 ч. 50 м.
Вид битрейта : Постоянный
Битрейт : 192 Кбит/сек
Каналы : 2 канала
Расположение каналов : Front: L R
Частота : 48,0 КГц
Битовая глубина : 16 бит
Метод сжатия : С потерями
Размер потока : 152 Мбайт (7%)
Выравнивание : Разделение по промежуткам
Продолжительность промежутка : 42 мс. (1,00 видеокадр)
Время предзагрузки промежутка : 500 мс.
Аудио #2
Идентификатор : 2
Формат : AC-3
Формат/Информация : Audio Coding 3
Расширение режима : CM (complete main)
Параметр Endianness формата : Big
Идентификатор кодека : 2000
Продолжительность : 1 ч. 50 м.
Вид битрейта : Постоянный
Битрейт : 192 Кбит/сек
Каналы : 2 канала
Расположение каналов : Front: L R
Частота : 48,0 КГц
Битовая глубина : 16 бит
Метод сжатия : С потерями
Размер потока : 152 Мбайт (7%)
Выравнивание : Разделение по промежуткам
Продолжительность промежутка : 42 мс. (1,00 видеокадр)
Время предзагрузки промежутка : 500 мс.
Аудио #3
Идентификатор : 3
Формат : AC-3
Формат/Информация : Audio Coding 3
Расширение режима : CM (complete main)
Параметр Endianness формата : Big
Идентификатор кодека : 2000
Продолжительность : 1 ч. 50 м.
Вид битрейта : Постоянный
Битрейт : 192 Кбит/сек
Каналы : 2 канала
Расположение каналов : Front: L R
Частота : 48,0 КГц
Битовая глубина : 16 бит
Метод сжатия : С потерями
Размер потока : 152 Мбайт (7%)
Выравнивание : Разделение по промежуткам
Продолжительность промежутка : 42 мс. (1,00 видеокадр)
Время предзагрузки промежутка : 500 мс.

Скриншот c названием фильма

Скриншоты

Показать сообщения:    

Текущее время: 21-Окт 18:39

Часовой пояс: UTC - 1


Вы не можете начинать темы
Вы не можете отвечать на сообщения
Вы не можете редактировать свои сообщения
Вы не можете удалять свои сообщения
Вы не можете голосовать в опросах
Вы не можете прикреплять файлы к сообщениям
Вы не можете скачивать файлы

!ВНИМАНИЕ!
Сайт не предоставляет электронные версии произведений, а занимается лишь коллекционированием и каталогизацией ссылок, присылаемых и публикуемых на форуме нашими читателями. Если вы являетесь правообладателем какого-либо представленного материала и не желаете, чтобы ссылка на него находилась в нашем каталоге, свяжитесь с нами, и мы незамедлительно удалим ее. Файлы для обмена на трекере предоставлены пользователями сайта, и администрация не несет ответственности за их содержание. Просьба не заливать файлы, защищенные авторскими правами, а также файлы нелегального содержания!