Ивановский Торрент трекер
Яндекс.Погода
 

[Цитировать]
HUNTER

Дети воды / The Water Babies
Страна: Польша, Великобритания
Жанр: Мультфильм, приключения, семейный, экранизация
Год выпуска: 1978
Продолжительность: 01:37:49
Перевод: Одноголосый закадровый
Cубтитры: нет
Оригинальная аудиодорожка: английский
Режиссер: Лайонел Джеффрис / Lionel Jeffries
В ролях: Томми Пендер / Tommy Pender, Джеймс Мейсон / James Mason, Бернард Криббинс / Bernard Cribbins, Билли Уайтлоу / Billie Whitelaw, Джоан Гринвуд / Joan Greenwood, Дэвид Томлинсон / David Tomlinson, Саманта Гейтс / Samantha Gates
Описание: 12-летний Томми, связавшись с грабителями, которые работали под видом трубочистов, незаслуженно обвинен в краже из богатого дома. Несмотря на то, что юная Элли, живущая в этом доме, защищает Тома, за ним - погоня. Для спасения есть только один выход - прыгнуть в поток бурной реки...
И тут он попадает в удивительный сказочный мир, где подводные существа относятся к нему доброжелательно, они советуют Тому найти водных детей, которые могут помочь ему вернуться наверх. Том отправляется в далекое путешествие к океану в поисках детей воды, по дороге к нему присоединяются несколько эксцентричных друзей.
Но едва только Том и его друзья достигли цели своего путешествия, водных детей берут в плен злая акула и жестокий электрический угорь. Томми необходимо попасть обратно в свой мир, чтобы доказать ложность обвинения в воровстве, но сначала он должен помочь подводным детям освободиться из плена...
Доп. информация: Фильма и мультфильма здесь примерно пополам - по 47-50 минут, но он числится
в Списке полнометражных мультфильмов (List of animated feature films.)
Субтитры предоставила (adamovna), за что ей огромное спасибо.
Альтернативная раздача: http://rutracker.org/forum/viewtopic.php?t=4797332
Сэмпл: http://multi-up.com/991937
Качество видео: DVDRip
Формат видео: AVI
Видео: 464x352 (1.32:1), 23.976 fps, XviD build 46 ~813 kbps avg, 0.21 bit/pixel
Аудио: 48 kHz, MPEG Layer 3, 2 ch, ~128.00 kbps avg

MediaInfo

Общее
Полное имя : F:\С моей озвучкой\Дети воды@.avi
Формат : AVI
Формат/Информация : Audio Video Interleave
Размер файла : 666 Мбайт
Продолжительность : 1 ч. 37 м.
Общий поток : 951 Кбит/сек
Программа кодирования : VirtualDubModRus 1.5.10.2 (build 2542/release)
Библиотека кодирования : VirtualDubMod build 2542/release
Видео
Идентификатор : 0
Формат : MPEG-4 Visual
Профиль формата : Advanced Simple@L5
Параметр BVOP формата : 1
Параметр QPel формата : Нет
Параметр GMC формата : Без точки перехода
Параметр матрицы формата : Выборочная
Идентификатор кодека : XVID
Идентификатор кодека/Подсказка : XviD
Продолжительность : 1 ч. 37 м.
Битрейт : 814 Кбит/сек
Ширина : 464 пикселя
Высота : 352 пикселя
Соотношение сторон : 4:3
Частота кадров : 23,976 кадра/сек
Цветовое пространство : YUV
Субдискретизация насыщенности : 4:2:0
Битовая глубина : 8 бит
Тип развёртки : Прогрессивная
Метод сжатия : С потерями
Бит/(Пиксели*Кадры) : 0.208
Размер потока : 569 Мбайт (86%)
Библиотека кодирования : XviD 1.1.2 (UTC 2006-11-01)
Аудио
Идентификатор : 1
Формат : MPEG Audio
Версия формата : Version 1
Профиль формата : Layer 3
Режим : Joint stereo
Расширение режима : MS Stereo
Идентификатор кодека : 55
Идентификатор кодека/Подсказка : MP3
Продолжительность : 1 ч. 37 м.
Вид битрейта : Постоянный
Битрейт : 128 Кбит/сек
Каналы : 2 канала
Частота : 48,0 КГц
Метод сжатия : С потерями
Размер потока : 89,6 Мбайт (13%)
Выравнивание : Соединение по промежуткам
Продолжительность промежутка : 42 мс. (1,00 видеокадр)
Время предзагрузки промежутка : 504 мс.
Библиотека кодирования : LAME3.96
Язык : English

Скриншоты



Показать сообщения:    

Текущее время: 14-Дек 08:28

Часовой пояс: UTC ± 0


Вы не можете начинать темы
Вы не можете отвечать на сообщения
Вы не можете редактировать свои сообщения
Вы не можете удалять свои сообщения
Вы не можете голосовать в опросах
Вы не можете прикреплять файлы к сообщениям
Вы не можете скачивать файлы

!ВНИМАНИЕ!
Сайт не предоставляет электронные версии произведений, а занимается лишь коллекционированием и каталогизацией ссылок, присылаемых и публикуемых на форуме нашими читателями. Если вы являетесь правообладателем какого-либо представленного материала и не желаете, чтобы ссылка на него находилась в нашем каталоге, свяжитесь с нами, и мы незамедлительно удалим ее. Файлы для обмена на трекере предоставлены пользователями сайта, и администрация не несет ответственности за их содержание. Просьба не заливать файлы, защищенные авторскими правами, а также файлы нелегального содержания!