Ивановский Торрент трекер
Яндекс.Погода
 

[Цитировать]
HUNTER

~ Дети воды / The Water Babies ~- Страна: Польша, Великобритания
Жанр: мультфильм, приключения, семейный, экранизация
Год выпуска: 1978
Продолжительность: 01:37:49-Перевод: субтитры (adamovna)
Cубтитры: русские, английские
Оригинальная аудиодорожка: английский-Режиссер: Лайонел Джеффрис / Lionel Jeffries
В ролях: Томми Пендер / Tommy Pender, Джеймс Мейсон / James Mason, Бернард Криббинс / Bernard Cribbins, Билли Уайтлоу / Billie Whitelaw, Джоан Гринвуд / Joan Greenwood, Дэвид Томлинсон / David Tomlinson, Саманта Гейтс / Samantha Gates-Описание: 12-летний Томми, связавшись с грабителями, которые работали под видом трубочистов, незаслуженно обвинен в краже из богатого дома. Несмотря на то, что юная Элли, живущая в этом доме, защищает Тома, за ним - погоня. Для спасения есть только один выход - прыгнуть в поток бурной реки...
И тут он попадает в удивительный сказочный мир, где подводные существа относятся к нему доброжелательно, они советуют Тому найти водных детей, которые могут помочь ему вернуться наверх. Том отправляется в далекое путешествие к океану в поисках детей воды, по дороге к нему присоединяются несколько эксцентричных друзей.
Но едва только Том и его друзья достигли цели своего путешествия, водных детей берут в плен злая акула и жестокий электрический угорь. Томми необходимо попасть обратно в свой мир, чтобы доказать ложность обвинения в воровстве, но сначала он должен помочь подводным детям освободиться из плена...
Доп. информация:
Релиз для IMDb: 6,1 (750)
Фильма и мультфильма здесь примерно пополам - по 47-50 минут, но он числится
в Списке полнометражных мультфильмов (List of animated feature films.)

СЭМПЛ1 http://multi-up.com/990841 СЭМПЛ2 http://multi-up.com/990842
Фильм - экранизация одноименной сказки Чарльза Кингсли The Water Babies (1863)

скрытый текст


-
-Качество видео: DVDRip
Формат видео: AVI
ВидеоXviD, 640 х 480, 4:3, 23.976 fps, 1 470 Kbps
Аудио: ENG MP3, 48.0 KHz, 128 Kbps, 2 channels, Original
Формат субтитров: softsub (SRT)

MediaInfo

General
Complete name : The Water Babies (1978).avi
Format : AVI
Format/Info : Audio Video Interleave
File size : 1.10 GiB
Duration : 1h 37mn
Overall bit rate : 1 607 Kbps
Writing application : VirtualDubMod 1.5.10.2 (build 2542/release)
Writing library : VirtualDubMod build 2542/release
Video #0
ID : 0
Format : MPEG-4 Visual
Format profile : Advanced Simple@L5
Format settings, BVOP : 1
Format settings, QPel : No
Format settings, GMC : No warppoints
Format settings, Matrix : Default (MPEG)
Codec ID : XVID
Codec ID/Hint : XviD
Duration : 1h 37mn
Bit rate : 1 470 Kbps
Width : 640 pixels
Height : 480 pixels
Display aspect ratio : 4:3
Frame rate : 23.976 fps
Color space : YUV
Chroma subsampling : 4:2:0
Bit depth : 8 bits
Scan type : Progressive
Compression mode : Lossy
Bits/(Pixel*Frame) : 0.200
Stream size : 1.00 GiB (91%)
Writing library : XviD 1.1.2 (UTC 2006-11-01)
Audio #1
ID : 1
Format : MPEG Audio
Format version : Version 1
Format profile : Layer 3
Codec ID : 55
Codec ID/Hint : MP3
Duration : 1h 37mn
Bit rate mode : Constant
Bit rate : 128 Kbps
Channel(s) : 2 channels
Sampling rate : 48.0 KHz
Compression mode : Lossy
Stream size : 89.6 MiB (8%)
Alignment : Aligned on interleaves
Interleave, duration : 42 ms (1.00 video frame)
Interleave, preload duration : 504 ms
Writing library : LAME3.99r
Encoding settings : -m s -V 4 -q 2 -lowpass 17 -b 128

covers




Показать сообщения:    

Текущее время: 22-Окт 20:09

Часовой пояс: UTC - 1


Вы не можете начинать темы
Вы не можете отвечать на сообщения
Вы не можете редактировать свои сообщения
Вы не можете удалять свои сообщения
Вы не можете голосовать в опросах
Вы не можете прикреплять файлы к сообщениям
Вы не можете скачивать файлы

!ВНИМАНИЕ!
Сайт не предоставляет электронные версии произведений, а занимается лишь коллекционированием и каталогизацией ссылок, присылаемых и публикуемых на форуме нашими читателями. Если вы являетесь правообладателем какого-либо представленного материала и не желаете, чтобы ссылка на него находилась в нашем каталоге, свяжитесь с нами, и мы незамедлительно удалим ее. Файлы для обмена на трекере предоставлены пользователями сайта, и администрация не несет ответственности за их содержание. Просьба не заливать файлы, защищенные авторскими правами, а также файлы нелегального содержания!