Важное объявление!
У Нас Все раздачи мультитрекерные, при нуле пиров в релизах, можете смело вставать на закачку!
 
Автор Сообщение

HUNTER

Стаж:
4 года 8 месяцев
Сообщений:
62068

Репутация: 101

[+] [-]
Вне форума [Профиль] [ЛС]

Детективная история / Detective Story
Страна: США
Жанр: фильм-нуар, драма, криминал
Год выпуска: 1951
Продолжительность: 01:43:20
Перевод: Профессиональный (многоголосый закадровый)
Cубтитры: английские
Оригинальная аудиодорожка: английский
Режиссер: Уильям Уайлер / William Wyler
В ролях: Кирк Дуглас, Элинор Паркер, Уильям Бендикс, Кэти О’Доннелл, Джордж Макреди, Хорас МакМахон, Глэдис Джордж, Джозеф Уайзмен, Ли Грант, Джералд Мор
Описание: Детектив МакЛеод жесток и бескомпромиссен со всеми нарушителями закона. Он избивает множество подозреваемых, чтобы выбить признание, если на них не находится достаточно улик. Занимающийся нелегальной врачебной практикой врач Шнейдер давно на подозрении у МакЛеода, и, несмотря на отсутствие свидетелей против него, детектив мечтает упечь доктора за решетку.
Доп. информация:


За русскую дорожку спасибо palmeiras и JayBee
Сэмпл: http://sendfile.su/1030984
Тип релиза: WEB-DL 720p
Контейнер: MKV
Видео: AVC, 972x720, L3.1, 23.976fps, 4213kbps
Аудио 1: Russian: AC3, 48000Hz, 2ch, 192kbps
Аудио 2: English: AC3, 48000Hz, 2ch, 192kbps - DVD
Аудио 3: English: AAC, 48000Hz, 2ch, 119kbps - WEB-DL
Формат субтитров: softsub (SRT)

MediaInfo

Общее
Уникальный идентификатор : 244457272184657859735780123743272447008 (0xB7E8C210600B8094ABCE35C7D2962C20)
Полное имя : T:\Detective Story (WEB-DL 720p).mkv
Формат : Matroska
Версия формата : Version 4 / Version 2
Размер файла : 3,40 Гбайт
Продолжительность : 1 ч. 43 м.
Общий поток : 4715 Кбит/сек
Дата кодирования : UTC 2014-10-04 10:21:29
Программа кодирования : mkvmerge v6.9.1 ('Blue Panther') 64bit built on Apr 18 2014 18:23:38
Библиотека кодирования : libebml v1.3.0 + libmatroska v1.4.1
Видео
Идентификатор : 1
Формат : AVC
Формат/Информация : Advanced Video Codec
Профиль формата : High@L3.1
Параметр CABAC формата : Нет
Параметр ReFrames формата : 2 кадра
Идентификатор кодека : V_MPEG4/ISO/AVC
Продолжительность : 1 ч. 43 м.
Ширина : 972 пикселя
Высота : 720 пикселей
Соотношение сторон : 4:3
Режим частоты кадров : Постоянный
Частота кадров : 23,976 кадра/сек
Цветовое пространство : YUV
Субдискретизация насыщенности : 4:2:0
Битовая глубина : 8 бит
Тип развёртки : Прогрессивная
Язык : English
Default : Да
Forced : Нет
Основные цвета : BT.709
Характеристики трансфера : BT.709
Коэффициенты матрицы : BT.709
Аудио #1
Идентификатор : 2
Формат : AC-3
Формат/Информация : Audio Coding 3
Расширение режима : CM (complete main)
Параметр Endianness формата : Big
Идентификатор кодека : A_AC3
Продолжительность : 1 ч. 43 м.
Вид битрейта : Постоянный
Битрейт : 192 Кбит/сек
Каналы : 2 канала
Расположение каналов : Front: L R
Частота : 48,0 КГц
Битовая глубина : 16 бит
Метод сжатия : С потерями
Размер потока : 142 Мбайт (4%)
Язык : Russian
Default : Да
Forced : Нет
Аудио #2
Идентификатор : 3
Формат : AC-3
Формат/Информация : Audio Coding 3
Расширение режима : CM (complete main)
Параметр Endianness формата : Big
Идентификатор кодека : A_AC3
Продолжительность : 1 ч. 43 м.
Вид битрейта : Постоянный
Битрейт : 192 Кбит/сек
Каналы : 2 канала
Расположение каналов : Front: L R
Частота : 48,0 КГц
Битовая глубина : 16 бит
Метод сжатия : С потерями
Размер потока : 142 Мбайт (4%)
Заголовок : DVD
Язык : English
Default : Нет
Forced : Нет
Аудио #3
Идентификатор : 4
Формат : AAC
Формат/Информация : Advanced Audio Codec
Профиль формата : LC
Идентификатор кодека : A_AAC
Продолжительность : 1 ч. 43 м.
Каналы : 2 канала
Расположение каналов : Front: L R
Частота : 48,0 КГц
Метод сжатия : С потерями
Заголовок : WEB-DL
Язык : English
Default : Нет
Forced : Нет
Текст
Идентификатор : 5
Формат : UTF-8
Идентификатор кодека : S_TEXT/UTF8
Идентификатор кодека/Информация : UTF-8 Plain Text
Заголовок : CC
Язык : English
Default : Нет
Forced : Нет
Меню
00:00:00.000 : en:The Precinct
00:07:21.000 : en:Detective McLeod
00:14:59.000 : en:Interrogations
00:21:47.000 : en:Detainees
00:27:00.000 : en:Schneider Surrenders
00:35:04.000 : en:Going For A Ride
00:40:38.000 : en:Personal Motives
00:47:02.000 : en:Arthur's Story
00:53:22.000 : en:Mrs. McLeod
01:00:25.000 : en:Digging Your Own Grave
01:07:11.000 : en:Immaculate Wife
01:13:57.000 : en:Booking Arthur
01:22:20.000 : en:Compromise
01:27:15.000 : en:Vengeful Man
01:36:11.000 : en:Forgiveness

Скриншоты


_________________
Показать сообщения:    

Текущее время: Сегодня 16:18

Часовой пояс: GMT



Вы не можете начинать темы
Вы не можете отвечать на сообщения
Вы не можете редактировать свои сообщения
Вы не можете удалять свои сообщения
Вы не можете голосовать в опросах
Вы не можете прикреплять файлы к сообщениям
Вы не можете скачивать файлы
Наши партнеры: интернет магазин Ивановского трикотажа textilla.ru