Дерево Джошуа / Joshua Tree (Вик Армстронг / Vic Armstrong) [1993, США, боевик, BDRemux 1080p] Dub (Хлопушка) + MVO (ОРТ) + DVO (Лазер-Видео) + MVO (Россия) + AVO (Гаврилов) + Ukr (2+2) + Sub Eng + Original Eng :: Ивановский Торрент трекер
Важное объявление!
У Нас Все раздачи мультитрекерные, при нуле пиров в релизах, можете смело вставать на закачку!
Статистика раздачи
Размер:     |    Зарегистрирован:     |    Скачан:     |   
Нет
 
     
 
 
Автор Сообщение

HUNTER

Стаж:
4 года 11 месяцев
Сообщений:
66052

Репутация: 101

[+] [-]
Вне форума [Профиль] [ЛС]

Дерево Джошуа / Армия Одиночки / Переступив Черту-Joshua Tree / Army Of One-Театральная версия / The theatrical version-
Страна: США
Жанр: боевик, криминал, драма
Год выпуска: 1993
Продолжительность: 01:42:12
Перевод: Профессиональный (дублированный) Хлопушка
Перевод 2: Профессиональный (многоголосый закадровый) ОРТ
Перевод 3: Профессиональный (двухголосый закадровый) Лазер-Видео
Перевод 4: Профессиональный (двухголосый закадровый) НТВ+
Перевод 5: Профессиональный (многоголосый закадровый) Россия
Перевод 6: Авторский (одноголосый закадровый) Гаврилов
Cубтитры: английские
Оригинальная аудиодорожка: английский
Режиссер: Вик Армстронг / Vic Armstrong
В ролях: Дольф Лундгрен, Джордж Сигал, Кристиан Альфонсо, Джеффри Льюис, Бо Старр, Мишель Филлипс, Мэтт Батталья, Берт Ремсен, Майкл Пол Чан, Кэнди Александр
Описание: Автогонщик Сэнти обвинен в убийстве полицейского. Это дело рук продажного копа Сэверенса, работающего на мафию. Сэнти получил серьезное ранение, но выжил. Его осудили на пожизненное заключение. Охранники должны были застрелить его якобы при попытке к бегству, но ему удалось скрыться.
Спасаясь от преследователей, он берет в заложницы красотку, не подозревая, что она — помощник шерифа. Рита — девица не из слабых. Она делает попытку сбежать, но ей это не удается. Сэнти сам отпускает ее, когда добирается до ранчо своего врага. Но тут уж Рита решает докопаться до сути происходящего.
Примечание
Это именно версия "Дерево Джошуа", та, что с хэппиэнд'ом. Доказательство тому первый и последний скриншот что этот фильм "Дерево Джошуа". На последним скриншоте вы можите увидеть концовку из фильм с хэпиэндом, а в других версиях концовка его показывают лежащим в песке и пошли титры. В этой версии концовка такая шериф приезжает к Санти чтобы его навестить и Санти ее поцеловал, она садится в машину и уезжает и только потом пошли титры.
другая версия идет по времени 01:46:32 само собой концовка другая и называется Army Of One

Тип релиза: BDRemux 1080p
Контейнер: MKV
Видео кодек: H.264
Аудио кодек: DTS, АС3
Видео: 1920x1080, MPEG-4 AVC, 23.976 fps, ~29.9 Mbps
Аудио№1: Russian: 48 kHz, АС3, 2 ch, 192 kbps [дубляж]
Аудио№2: Russian: 48 kHz, АС3, 2 ch, 192 kbps [многоголосый, ОРТ]
Аудио№3: Russian: 48 kHz, АС3, 2 ch, 192 kbps [многоголосый, Лазер-Видео]
Аудио№4: Russian: 48 kHz, АС3, 2 ch, 192 kbps [многоголосый, НТВ+]
Аудио№5: Russian: 48 kHz, АС3, 2 ch, 192 kbps [многоголосый, "Россия"]
Аудио№6: Russian: 48 kHz, АС3, 2 ch, 192 kbps [одноголосый, Гаврилов]
Аудио№7: Ukrainian: 48 kHz, АС3, 2 ch, 192 kbps [двухголосый, 2+2]
Аудио№8: English: 48 kHz, DTS-HD MА, 6 ch, 3741 kbps [оригинал]
MediaInfo
Общее
Уникальный идентификатор : 177364140090957976334987896231369654176 (0x856F1741B1C3A1ED8F544947FD343FA0)
Полное имя : C:\Users\к\Desktop\фильмы\кино\Derevo.Djoshua.1993.BD-Remux.1080p.mkv
Формат : Matroska
Версия формата : Version 2
Размер файла : 25,0 Гбайт
Продолжительность : 1 ч. 42 м.
Режим общего битрейта : Переменный
Общий поток : 35,1 Мбит/сек
Название фильма : Дерево Джошуа | Joshua Tree [1993] -=BDRip (AVC) by 0ptimus=-
Дата кодирования : UTC 2013-11-20 17:47:58
Программа кодирования : mkvmerge v4.9.1 ('Ich will') сборка от Aug 10 2011 09:31:20
Библиотека кодирования : libebml v1.2.1 + libmatroska v1.2.0
Видео
Идентификатор : 1
Формат : AVC
Формат/Информация : Advanced Video Codec
Профиль формата : High@L4.1
Параметр CABAC формата : Да
Параметр ReFrames формата : 3 кадра
Режим смешивания : Header stripping
Идентификатор кодека : V_MPEG4/ISO/AVC
Продолжительность : 1 ч. 42 м.
Вид битрейта : Переменный
Максимальный битрейт : 35,0 Мбит/сек
Ширина : 1920 пикселей
Высота : 1080 пикселей
Соотношение сторон : 16:9
Режим частоты кадров : Постоянный
Частота кадров : 23,976 кадра/сек
Стандарт вещания : NTSC
Цветовое пространство : YUV
Субдискретизация насыщенности : 4:2:0
Битовая глубина : 8 бит
Тип развёртки : Прогрессивная
Default : Да
Forced : Нет
Основные цвета : BT.709
Характеристики трансфера : BT.709
Коэффициенты матрицы : BT.709
Аудио #1
Идентификатор : 2
Формат : AC-3
Формат/Информация : Audio Coding 3
Расширение режима : CM (complete main)
Параметр Endianness формата : Big
Режим смешивания : Header stripping
Идентификатор кодека : A_AC3
Продолжительность : 1 ч. 42 м.
Вид битрейта : Постоянный
Битрейт : 192 Кбит/сек
Каналы : 2 канала
Расположение каналов : Front: L R
Частота : 48,0 КГц
Битовая глубина : 16 бит
Метод сжатия : С потерями
Размер потока : 140 Мбайт (1%)
Заголовок : Дублированный [Хлопушка] AC3 2.0 @ 192 kbps
Язык : Russian
Default : Да
Forced : Да
Аудио #2
Идентификатор : 3
Формат : AC-3
Формат/Информация : Audio Coding 3
Расширение режима : CM (complete main)
Параметр Endianness формата : Big
Режим смешивания : Header stripping
Идентификатор кодека : A_AC3
Продолжительность : 1 ч. 42 м.
Вид битрейта : Постоянный
Битрейт : 192 Кбит/сек
Каналы : 2 канала
Расположение каналов : Front: L R
Частота : 48,0 КГц
Битовая глубина : 16 бит
Метод сжатия : С потерями
Размер потока : 140 Мбайт (1%)
Заголовок : Многоголосый закадровый [ОРТ] AC3 2.0 @ 192 kbps
Язык : Russian
Default : Нет
Forced : Нет
Аудио #3
Идентификатор : 4
Формат : AC-3
Формат/Информация : Audio Coding 3
Расширение режима : CM (complete main)
Параметр Endianness формата : Big
Режим смешивания : Header stripping
Идентификатор кодека : A_AC3
Продолжительность : 1 ч. 42 м.
Вид битрейта : Постоянный
Битрейт : 192 Кбит/сек
Каналы : 2 канала
Расположение каналов : Front: L R
Частота : 48,0 КГц
Битовая глубина : 16 бит
Метод сжатия : С потерями
Размер потока : 140 Мбайт (1%)
Заголовок : Многоголосый закадровый [Лазер-Видео] AC3 2.0 @ 192 kbps
Язык : Russian
Default : Нет
Forced : Нет
Аудио #4
Идентификатор : 5
Формат : AC-3
Формат/Информация : Audio Coding 3
Расширение режима : CM (complete main)
Параметр Endianness формата : Big
Режим смешивания : Header stripping
Идентификатор кодека : A_AC3
Продолжительность : 1 ч. 42 м.
Вид битрейта : Постоянный
Битрейт : 192 Кбит/сек
Каналы : 2 канала
Расположение каналов : Front: L R
Частота : 48,0 КГц
Битовая глубина : 16 бит
Метод сжатия : С потерями
Размер потока : 140 Мбайт (1%)
Заголовок : Многоголосый закадровый [НТВ+] AC3 2.0 @ 192 kbps
Язык : Russian
Default : Нет
Forced : Нет
Аудио #5
Идентификатор : 6
Формат : AC-3
Формат/Информация : Audio Coding 3
Расширение режима : CM (complete main)
Параметр Endianness формата : Big
Режим смешивания : Header stripping
Идентификатор кодека : A_AC3
Продолжительность : 1 ч. 42 м.
Вид битрейта : Постоянный
Битрейт : 192 Кбит/сек
Каналы : 2 канала
Расположение каналов : Front: L R
Частота : 48,0 КГц
Битовая глубина : 16 бит
Метод сжатия : С потерями
Размер потока : 140 Мбайт (1%)
Заголовок : Многоголосый закадровый [Канал "Россия"] AC3 2.0 @ 192 kbps
Язык : Russian
Default : Нет
Forced : Нет
Аудио #6
Идентификатор : 7
Формат : AC-3
Формат/Информация : Audio Coding 3
Расширение режима : CM (complete main)
Параметр Endianness формата : Big
Режим смешивания : Header stripping
Идентификатор кодека : A_AC3
Продолжительность : 1 ч. 42 м.
Вид битрейта : Постоянный
Битрейт : 192 Кбит/сек
Каналы : 2 канала
Расположение каналов : Front: L R
Частота : 48,0 КГц
Битовая глубина : 16 бит
Метод сжатия : С потерями
Размер потока : 140 Мбайт (1%)
Заголовок : Авторский [Андрей Гаврилов] AC3 2.0 @ 192 kbps
Язык : Russian
Default : Нет
Forced : Нет
Аудио #7
Идентификатор : 8
Формат : AC-3
Формат/Информация : Audio Coding 3
Расширение режима : CM (complete main)
Параметр Endianness формата : Big
Режим смешивания : Header stripping
Идентификатор кодека : A_AC3
Продолжительность : 1 ч. 42 м.
Вид битрейта : Постоянный
Битрейт : 192 Кбит/сек
Каналы : 2 канала
Расположение каналов : Front: L R
Частота : 48,0 КГц
Битовая глубина : 16 бит
Метод сжатия : С потерями
Размер потока : 140 Мбайт (1%)
Заголовок : Двухголосый закадровый [2+2] AC3 2.0 @ 192 kbps
Язык : Ukrainian
Default : Нет
Forced : Нет
Аудио #8
Идентификатор : 9
Формат : DTS
Формат/Информация : Digital Theater Systems
Профиль формата : MA / Core
Режим : 16
Параметр Endianness формата : Big
Режим смешивания : Header stripping
Идентификатор кодека : A_DTS
Продолжительность : 1 ч. 42 м.
Вид битрейта : Переменный
Битрейт : Неизвестно / 1509 Кбит/сек
Каналы : 6 каналов
Расположение каналов : Front: L C R, Side: L R, LFE
Частота : 48,0 КГц
Битовая глубина : 24 бит
Метод сжатия : Без потерь / Lossy
Заголовок : Оригинал
Язык : English
Default : Нет
Forced : Нет
Текст
Идентификатор : 10
Формат : UTF-8
Идентификатор кодека : S_TEXT/UTF8
Идентификатор кодека/Информация : UTF-8 Plain Text
Язык : English
Default : Нет
Forced : Нет
Меню
00:00:00.000 : :Chapter 01
00:08:21.501 : :Chapter 02
00:18:03.707 : :Chapter 03
00:27:31.274 : :Chapter 04
00:36:14.172 : :Chapter 05
00:42:30.172 : :Chapter 06
00:48:57.559 : :Chapter 07
01:04:44.505 : :Chapter 08
01:12:19.960 : :Chapter 09
01:22:28.568 : :Chapter 10
01:30:32.051 : :Chapter 11
01:36:42.421 : :Chapter 12
Скриншоты

_________________
Показать сообщения:    

Текущее время: Сегодня 20:56

Часовой пояс: GMT



Вы не можете начинать темы
Вы не можете отвечать на сообщения
Вы не можете редактировать свои сообщения
Вы не можете удалять свои сообщения
Вы не можете голосовать в опросах
Вы не можете прикреплять файлы к сообщениям
Вы не можете скачивать файлы