Ивановский Торрент трекер
Яндекс.Погода
 

[Цитировать]
HUNTER

День рождения Буржуя-Кол-во серий: 15
Год выпуска: 1999 - 2001
Страна: Россия
Жанр: остросюжетный детектив
Продолжительность: 15 х ~ 00:50:00
Кол-во серий/сезонов: сезон 2, серии 1- 15 из 15
Перевод: не требуется
Субтитры: нет-В ролях: Валерий Николаев, Ирина Апексимова, Андрей Смоляков, Анатолий Журавлев, Елена Шевченко, Александр Феклистов, Виктория Малекторович, Дмитрий Шевченко
Режиссёр: Анатолий Матешко-Описание: Прошло четыре года с тех пор, как Буржуй, в конце первого сезона, получил на день рождения необычный подарок: рыженького котенка. От настырных преследований со стороны Кудлы, Буржуй уже успел избавиться и некоторое время в его семье царил мир. Но потом словно гром среди ясного неба разразилась трагедия, которая навсегда изменила жизнь Буржуя.-Качество: DVDRip
Формат: AVI
Видео кодек: XviD 1.1 beta 2 (build 39)
Аудио кодек: MPEG Layer 3
Видео: XVID 720x432 25.00fps 1026Kbps
Аудио: MPEG Audio Layer 3 48000Hz stereo 224Kbps-

MediaInfo

Код: copyText_writeLink('this.parentNode.parentNode.nextSibling.nextSibling'); Формат : AVI
Формат/Информация : Audio Video Interleave
Размер файла : 445 Мбайт
Продолжительность : 50 м.
Общий поток : 1235 Кбит/сек
Видео
Идентификатор : 0
Формат : MPEG-4 Visual
Профиль формата : Simple@L3
Параметр BVOP формата : Нет
Параметр QPel формата : Нет
Параметр GMC формата : Без точки перехода
Параметр матрицы формата : Default (H.263)
Идентификатор кодека : XVID
Идентификатор кодека/Подсказка : XviD
Продолжительность : 50 м.
Битрейт : 998 Кбит/сек
Ширина : 720 пикселей
Высота : 432 пикселя
Соотношение сторон : 1,667
Частота кадров : 25,000 кадров/сек
Цветовое пространство : YUV
Субдискретизация насыщенности : 4:2:0
Битовая глубина : 8 бит
Тип развёртки : Прогрессивная
Метод сжатия : С потерями
Бит/(Пиксели*Кадры) : 0.128
Размер потока : 360 Мбайт (81%)
Библиотека кодирования : XviD 1.1.0 Beta2 (UTC 2005-04-04)
Аудио
Идентификатор : 1
Формат : MPEG Audio
Версия формата : Version 1
Профиль формата : Layer 3
Режим : Joint stereo
Расширение режима : MS Stereo
Идентификатор кодека : 55
Идентификатор кодека/Подсказка : MP3
Продолжительность : 50 м.
Вид битрейта : Постоянный
Битрейт : 224 Кбит/сек
Каналы : 2 канала
Частота : 48,0 КГц
Метод сжатия : С потерями
Размер потока : 80,8 Мбайт (18%)
Выравнивание : Соединение по промежуткам
Продолжительность промежутка : 24 мс. (0,60 видеокадр)
Время предзагрузки промежутка : 504 мс.
Библиотека кодирования : LAME3.96.1

Скриншоты

Показать сообщения:    

Текущее время: 19-Сен 19:51

Часовой пояс: UTC - 1


Вы не можете начинать темы
Вы не можете отвечать на сообщения
Вы не можете редактировать свои сообщения
Вы не можете удалять свои сообщения
Вы не можете голосовать в опросах
Вы не можете прикреплять файлы к сообщениям
Вы не можете скачивать файлы

!ВНИМАНИЕ!
Сайт не предоставляет электронные версии произведений, а занимается лишь коллекционированием и каталогизацией ссылок, присылаемых и публикуемых на форуме нашими читателями. Если вы являетесь правообладателем какого-либо представленного материала и не желаете, чтобы ссылка на него находилась в нашем каталоге, свяжитесь с нами, и мы незамедлительно удалим ее. Файлы для обмена на трекере предоставлены пользователями сайта, и администрация не несет ответственности за их содержание. Просьба не заливать файлы, защищенные авторскими правами, а также файлы нелегального содержания!