Важное объявление!
У Нас Все раздачи мультитрекерные, при нуле пиров в релизах, можете смело вставать на закачку!
 
Автор Сообщение

HUNTER

Стаж:
4 года 8 месяцев
Сообщений:
62068

Репутация: 101

[+] [-]
Вне форума [Профиль] [ЛС]

День Победы. Праздничный канал Россия 1 (09.05.2013)
Год выпуска: 2013
Страна: Россия
Студия: ВГТРК
Жанр: Документальный
Продолжительность: 00:57:12 + 00:59:47
Перевод: Не требуется
Русские субтитры: нет
Описание: В 2013 году вся страна отмечает 68-ю годовщину победы советского народа над фашизмом. Как и всегда, в этот день на Красной Площади прошел Парад Победы. Праздничные выпуски программ "Утро России" и "Вести" расскажут своим телезрителям как проходила подготовка к этому событию. Так же телезрителям представят уникальные архивные кадры времен войны и воспоминания ныне живущих ветеранов.
Источник: собственный рип
Доп. информация: Релиз -

Рип чистый. Без посторонних надписей. Выкладывается как есть.
Качество: DVB
Формат: MPG
Видео кодек: MPG2
Аудио кодек: MP2
Видео: 720x576 @ (4:3) 25.00fps 5 810 Kbps, 0.560 bit/pixel
Аудио: MPEG Audio 48000Hz stereo 192 Кбит/сек 2 channels

Скриншоты

]

Скринлист

MI

GeneralComplete name : J:\ВЫКЛАДКА\День Победы. Праздничный канал Россия 1 (09.05.2013) (2013, Документальный, DVB) (MYDIMKA)\Вести. 68 лет победе! (2013, Документальный, Тв-шоу, DVB) (MYDIMKA).mpgFormat : MPEG-PSFile size : 2.55 GiBDuration : 59mn 47sOverall bit rate mode : VariableOverall bit rate : 6 118 Kbps
VideoID : 224 (0xE0)Format : MPEG VideoFormat version : Version 2Format profile : Main@MainFormat settings, BVOP : YesFormat settings, Matrix : CustomFormat settings, GOP : VariableDuration : 59mn 47sBit rate mode : VariableBit rate : 5 804 KbpsMaximum bit rate : 15.0 MbpsWidth : 720 pixelsHeight : 576 pixelsDisplay aspect ratio : 4:3Frame rate : 25.000 fpsStandard : PALColor space : YUVChroma subsampling : 4:2:0Bit depth : 8 bitsScan type : InterlacedScan order : Top Field FirstCompression mode : LossyBits/(Pixel*Frame) : 0.560Time code of first frame : 00:00:00:00Time code source : Group of pictures headerStream size : 2.42 GiB (95%)
AudioID : 192 (0xC0)Format : MPEG AudioFormat version : Version 1Format profile : Layer 2Duration : 59mn 47sBit rate mode : ConstantBit rate : 192 KbpsChannel(s) : 2 channelsSampling rate : 48.0 KHzCompression mode : LossyDelay relative to video : 2msStream size : 82.1 MiB (3%)

_________________
Показать сообщения:    

Текущее время: Сегодня 11:38

Часовой пояс: GMT



Вы не можете начинать темы
Вы не можете отвечать на сообщения
Вы не можете редактировать свои сообщения
Вы не можете удалять свои сообщения
Вы не можете голосовать в опросах
Вы не можете прикреплять файлы к сообщениям
Вы не можете скачивать файлы
Наши партнеры: интернет магазин Ивановского трикотажа textilla.ru