Ивановский Торрент трекер
Яндекс.Погода
Статистика раздачи
Размер:  8.6 GB   |    Зарегистрирован:  1 год 2 месяца   |    Скачан:  0 раз

Полного источника не было: Никогда

 
     
 
 
 

[Цитировать]
HUNTER

«У нас было двадцать лет на подготовку. У них тоже.»-День независимости: Возрождение / Independence Day: Resurgence -Год выпуска: 2016
Страна: США
Студия: Twentieth Century Fox Film Corporation
Жанр: фантастика, боевик, приключения
Продолжительность: 01:59:44
Перевод: Профессиональный (дублированный) Blu-ray EUR / Невафильм / Двадцатый Век Фокс СНГ
Cубтитры: русские, украинские, английские
Оригинальная аудиодорожка: английский-Режиссер: Роланд Эммерих / Roland Emmerich-В ролях: Лиам Хемсворт, Джефф Голдблюм, Джесси Ашер, Билл Пуллман, Майка Монро, Села Уорд, Уильям Фихтнер, Джадд Хёрш, Брент Спайнер, Патрик Ст. Эсприт и другие.-Роли дублировали: Александр Разбаш, Давид Бродский, Глеб Гаврилов, Валентин Морозов, Екатерина Тихомирова, Регина Щукина, Геннадий Меньшиков, Юрий Лазарев, Алексей Макрецкий, Максим Сергеев, Юлия Зоркина, Елизавета Захарьева, Марианна Семенова, Роман Никитин, Михаил Хрусталев, Игорь Сергеев, Александр Койгеров, Алексей Данков, Александр Хомик, Ирина Обрезкова, Максимилиан Сазонов, Сергей Маркеев, Александра Петрова, Станислав Казаку, Борис Хасанов, Александр Солдатов, Андрей Аверков, Никита Маркеев, Дмитрий Головин и другие.-Описание: Используя инопланетные технологии, жители Земли создали специальную программу по защите планеты. Но ничего не может нас спасти от нового, еще более разрушительного и масштабного инопланетного вторжения — только смелость нескольких героев, которые единственные могут спасти наш мир от уничтожения.-Качество: BDRip 720p
Формат: MKV
Видео кодек: H.264
Аудио кодек: AC3, DTS
Видео: H.264, 1280x534 (2.40:1), 23.976 fps, ~7131 kbps, 0.435 bit/pixel
Аудио:
  • русская |Blu-ray EUR|: DTS, 48 kHz, 6 ch, 768 kbps
  • украинская |Blu-ray EUR|: AC3, 48 kHz, 6 ch, 448 kbps
  • английская |Оригинал|: DTS-ES, 48 kHz, 6 ch, 1509 kbps
    английская |Комментарий Роланда Эммериха|: AC3, 48 kHz, 2 ch, 224 kbps
-Сэмпл \ Кинопоиск-

Скриншоты

Media Info

General
Unique ID                      : 247204666522131144879568687628985687443 (0xB9F9E3101EBF5FB88E1FC6289F35DD93)
Complete name                  : E:\Video\HD\Movies (HD)\Independence Day Resurgence (2016) (BDRip 720p).mkv
Format                         : Matroska
Format version                 : Version 4 / Version 2
File size                      : 8.60 GiB
Duration                       : 1h 59mn
Overall bit rate               : 10.3 Mbps
Encoded date                   : UTC 2016-10-08 02:16:36
Writing application            : mkvmerge v8.8.0 ('Wind at my back') 32bit
Writing library                : libebml v1.3.3 + libmatroska v1.4.4
DURATION                       : 01:49:45.552000000
NUMBER_OF_FRAMES               : 1711
NUMBER_OF_BYTES                : 51483
_STATISTICS_WRITING_APP        : mkvmerge v8.8.0 ('Wind at my back') 32bit
_STATISTICS_WRITING_DATE_UTC   : 2016-10-08 02:16:36
_STATISTICS_TAGS               : BPS DURATION NUMBER_OF_FRAMES NUMBER_OF_BYTES
Video
ID                             : 1
Format                         : AVC
Format/Info                    : Advanced Video Codec
Format profile                 : High@L4.1
Format settings, CABAC         : Yes
Format settings, ReFrames      : 12 frames
Codec ID                       : V_MPEG4/ISO/AVC
Duration                       : 1h 59mn
Bit rate                       : 7 131 Kbps
Width                          : 1 280 pixels
Height                         : 534 pixels
Display aspect ratio           : 2.40:1
Frame rate mode                : Constant
Frame rate                     : 23.976 fps
Color space                    : YUV
Chroma subsampling             : 4:2:0
Bit depth                      : 8 bits
Scan type                      : Progressive
Bits/(Pixel*Frame)             : 0.435
Stream size                    : 5.96 GiB (69%)
Writing library                : x264 core 148 r2721 72d53ab
Encoding settings              : cabac=1 / ref=12 / deblock=1:-3:-3 / analyse=0x3:0x133 / me=umh / subme=11 / psy=1 / psy_rd=1.00:0.00 / mixed_ref=1 / me_range=48 / chroma_me=1 / trellis=2 / 8x8dct=1 / cqm=0 / deadzone=21,11 / fast_pskip=0 / chroma_qp_offset=-2 / threads=17 / lookahead_threads=2 / sliced_threads=0 / nr=0 / decimate=1 / interlaced=0 / bluray_compat=0 / constrained_intra=0 / bframes=9 / b_pyramid=2 / b_adapt=2 / b_bias=0 / direct=1 / weightb=1 / open_gop=0 / weightp=2 / keyint=240 / keyint_min=23 / scenecut=40 / intra_refresh=0 / rc_lookahead=60 / rc=crf / mbtree=0 / crf=16.1 / qcomp=0.60 / qpmin=0 / qpmax=69 / qpstep=4 / vbv_maxrate=50000 / vbv_bufsize=62500 / crf_max=0.0 / nal_hrd=none / filler=0 / ip_ratio=1.35 / pb_ratio=1.25 / aq=3:0.80
Language                       : English
Default                        : Yes
Forced                         : No
DURATION                       : 01:59:44.177000000
NUMBER_OF_FRAMES               : 172248
NUMBER_OF_BYTES                : 6578466970
_STATISTICS_WRITING_APP        : mkvmerge v8.8.0 ('Wind at my back') 32bit
_STATISTICS_WRITING_DATE_UTC   : 2016-10-08 02:16:36
_STATISTICS_TAGS               : BPS DURATION NUMBER_OF_FRAMES NUMBER_OF_BYTES
Audio #1
ID                             : 2
Format                         : DTS
Format/Info                    : Digital Theater Systems
Mode                           : 16
Format settings, Endianness    : Big
Codec ID                       : A_DTS
Duration                       : 1h 59mn
Bit rate mode                  : Constant
Bit rate                       : 768 Kbps
Channel(s)                     : 6 channels
Channel positions              : Front: L C R, Side: L R, LFE
Sampling rate                  : 48.0 KHz
Bit depth                      : 24 bits
Compression mode               : Lossy
Stream size                    : 658 MiB (7%)
Title                          : DUB (Blu-ray EUR / Невафильм / Двадцатый Век Фокс СНГ)
Language                       : Russian
Default                        : Yes
Forced                         : No
Audio #2
ID                             : 3
Format                         : AC-3
Format/Info                    : Audio Coding 3
Mode extension                 : CM (complete main)
Format settings, Endianness    : Big
Codec ID                       : A_AC3
Duration                       : 1h 59mn
Bit rate mode                  : Constant
Bit rate                       : 448 Kbps
Channel(s)                     : 6 channels
Channel positions              : Front: L C R, Side: L R, LFE
Sampling rate                  : 48.0 KHz
Bit depth                      : 16 bits
Compression mode               : Lossy
Stream size                    : 384 MiB (4%)
Title                          : DUB (Blu-ray EUR / Postmodern)
Language                       : Ukrainian
Default                        : No
Forced                         : No
Audio #3
ID                             : 4
Format                         : DTS
Format/Info                    : Digital Theater Systems
Format profile                 : ES
Mode                           : 16
Format settings, Endianness    : Big
Codec ID                       : A_DTS
Duration                       : 1h 59mn
Bit rate mode                  : Constant
Bit rate                       : 1 509 Kbps
Channel(s)                     : 6 channels
Channel positions              : Front: L C R, Side: L R, LFE
Sampling rate                  : 48.0 KHz
Bit depth                      : 24 bits
Compression mode               : Lossy
Stream size                    : 1.26 GiB (15%)
Title                          : Original
Language                       : English
Default                        : No
Forced                         : No
Audio #4
ID                             : 5
Format                         : AC-3
Format/Info                    : Audio Coding 3
Mode extension                 : CM (complete main)
Format settings, Endianness    : Big
Codec ID                       : A_AC3
Duration                       : 1h 59mn
Bit rate mode                  : Constant
Bit rate                       : 224 Kbps
Channel(s)                     : 2 channels
Channel positions              : Front: L R
Sampling rate                  : 48.0 KHz
Bit depth                      : 16 bits
Compression mode               : Lossy
Stream size                    : 192 MiB (2%)
Title                          : Commentary by Roland Emmerich
Language                       : English
Default                        : No
Forced                         : No
Text #1
ID                             : 6
Format                         : UTF-8
Codec ID                       : S_TEXT/UTF8
Codec ID/Info                  : UTF-8 Plain Text
Title                          : Forced (Blu-ray EUR)
Language                       : Russian
Default                        : Yes
Forced                         : No
Text #2
ID                             : 7
Format                         : UTF-8
Codec ID                       : S_TEXT/UTF8
Codec ID/Info                  : UTF-8 Plain Text
Title                          : Full (Blu-ray EUR)
Language                       : Russian
Default                        : No
Forced                         : No
Text #3
ID                             : 8
Format                         : UTF-8
Codec ID                       : S_TEXT/UTF8
Codec ID/Info                  : UTF-8 Plain Text
Title                          : Full (Blu-ray EUR)
Language                       : Ukrainian
Default                        : No
Forced                         : No
Text #4
ID                             : 9
Format                         : UTF-8
Codec ID                       : S_TEXT/UTF8
Codec ID/Info                  : UTF-8 Plain Text
Title                          : Forced
Language                       : English
Default                        : No
Forced                         : No
Text #5
ID                             : 10
Format                         : UTF-8
Codec ID                       : S_TEXT/UTF8
Codec ID/Info                  : UTF-8 Plain Text
Title                          : Full
Language                       : English
Default                        : No
Forced                         : No
Menu
00:00:00.000                   : en:1
00:05:37.336                   : en:2
00:09:15.471                   : en:3
00:14:06.720                   : en:4
00:19:40.470                   : en:5
00:22:59.001                   : en:6
00:27:10.252                   : en:7
00:31:37.644                   : en:8
00:39:11.974                   : en:9
00:43:41.117                   : en:10
00:47:46.612                   : en:11
00:52:32.190                   : en:12
00:59:10.255                   : en:13
01:02:00.132                   : en:14
01:07:12.068                   : en:15
01:09:54.814                   : en:16
01:13:11.720                   : en:17
01:18:27.452                   : en:18
01:22:45.502                   : en:19
01:27:51.807                   : en:20
01:32:36.716                   : en:21
01:39:38.137                   : en:22
01:47:20.141                   : en:23
01:50:36.712                   : en:24
-
[iv-torrents.ru].t62800.torrent
Торрент: Зарегистрирован [ 2016-10-09 21:14 ] · BFA7CD2F5BA183B3F296A7E12D6B7E3D59CABCA9

Скачать .torrent

Скачать

22 KB

Статус: проверено
Скачан: 0 раз
Размер: 8.6 GB
terms.php
Похожие темы


Показать сообщения:    

Текущее время: 14-Дек 20:55

Часовой пояс: UTC ± 0


Вы не можете начинать темы
Вы не можете отвечать на сообщения
Вы не можете редактировать свои сообщения
Вы не можете удалять свои сообщения
Вы не можете голосовать в опросах
Вы не можете прикреплять файлы к сообщениям
Вы можете скачивать файлы

!ВНИМАНИЕ!
Сайт не предоставляет электронные версии произведений, а занимается лишь коллекционированием и каталогизацией ссылок, присылаемых и публикуемых на форуме нашими читателями. Если вы являетесь правообладателем какого-либо представленного материала и не желаете, чтобы ссылка на него находилась в нашем каталоге, свяжитесь с нами, и мы незамедлительно удалим ее. Файлы для обмена на трекере предоставлены пользователями сайта, и администрация не несет ответственности за их содержание. Просьба не заливать файлы, защищенные авторскими правами, а также файлы нелегального содержания!