Важное объявление!
У Нас Все раздачи мультитрекерные, при нуле пиров в релизах, можете смело вставать на закачку!
Статистика раздачи
Размер:     |    Зарегистрирован:     |    Скачан:     |   
Нет
 
     
 
 
Автор Сообщение

HUNTER

Стаж:
5 лет 1 месяц
Сообщений:
68449

Репутация: 101

[+] [-]
Вне форума [Профиль] [ЛС]

День независимости: Возрождение / Independence Day: Resurgence«У нас было двадцать лет на подготовку. У них тоже»
Страна: США
Жанр: фантастика, приключения
Год выпуска: 2016
Продолжительность: 02:00:11
-
Перевод: Профессиональный (дублированный) Line
Cубтитры: английские
Оригинальная аудиодорожка: английский
-
Режиссер: Роланд Эммерих / Roland Emmerich
В ролях: Лиам Хемсворт, Джефф Голдблюм, Джесси Ашер, Билл Пуллман, Майка Монро, Села Уорд, Уильям Фихтнер, Джадд Хёрш, Брент Спайнер, Патрик Ст. Эсприт
-
Описание: После инопланетного вторжения на Землю, произошедшего 20 лет назад, люди извлекли горький урок из произошедшего. Тогда все поняли и увидели, насколько уязвима Земля для атак из космоса, и что нужно объединить усилия всех стран для создания надёжного оборонительного щита для планеты. Победа тогда досталась нелегко. Только благодаря самоотверженности нескольких героев удалось переломить ход битвы и остановить инопланетного агрессора. Этих героев помнили, на их примере учились. На них равнялись. Выросло целое молодое поколение, готовое дать отпор инопланетному агрессору и твёрдо верившее в победу. Технологии пришельцев были исследованы, и все новшества были использованы для усиления вооружений Землян, что значительно повышало обороноспособность планеты. Были построены локационные станции и военные базы как на самой Земле, так и на близлежащих планетах. И хотя теоретически Земля была готова к отражению инопланетных атак, та атака, которая повторилась спустя 20 лет, оказалась стремительной и мощной. Земля снова атакована! Что люди смогут противопоставить этой разрушительной силе? Смогут ли они вновь объединиться как единое целое, чтобы дать отпор агрессору?
[img]https://rating.kinopoisk.ru/505827.gif[/img]
Тип релиза: WEB-DL 720p
Контейнер: MKV
Видео: MPEG-4 AVC / NTSC 16:9 / 1280x532 (2,40:1) / 4023 kbps / 23,976 fps / 0.246 bit/pixel / Main@L3.1
Аудио 1: Russian / Dolby Digital Audio / 2.0 Ch / 48 kHz / 192 kbps / 16 bit | DUB | Line
Аудио 2: English / Dolby Digital Audio / 5.1 Ch / 48 kHz / 384 kbps / 16 bit | Original
Формат субтитров: softsub (SRT)
Навигация по главам: есть

MediaInfo

Код:
Общее
Уникальный идентификатор                 : 217268340131081281205351013466853912152 (0xA3745C378BF7611EB922AD717CE8AE58)
Полное имя                               : N:\WEB-DL 720p\Independence Day_Resurgence.2016.WEB-DL.720p.mkv
Формат                                   : Matroska
Версия формата                           : Version 4 / Version 2
Размер файла                             : 3,86 Гбайт
Продолжительность                        : 2 ч. 0 м.
Общий поток                              : 4598 Кбит/сек
Название фильма                          : Release for RuTracker © flaSI-I
Дата кодирования                         : UTC 2016-09-23 17:13:53
Программа кодирования                    : mkvmerge v9.4.2 ('So High') 64bit
Библиотека кодирования                   : libebml v1.3.4 + libmatroska v1.4.5
Видео
Идентификатор                            : 1
Формат                                   : AVC
Формат/Информация                        : Advanced Video Codec
Профиль формата                          : Main@L3.1
Параметр CABAC формата                   : Нет
Параметр ReFrames формата                : 2 кадра
Идентификатор кодека                     : V_MPEG4/ISO/AVC
Продолжительность                        : 2 ч. 0 м.
Битрейт                                  : 4023 Кбит/сек
Ширина                                   : 1280 пикселей
Высота                                   : 532 пикселя
Соотношение сторон                       : 2,40:1
Режим частоты кадров                     : Постоянный
Частота кадров                           : 23,976 кадра/сек
Цветовое пространство                    : YUV
Субдискретизация насыщенности            : 4:2:0
Битовая глубина                          : 8 бит
Тип развёртки                            : Прогрессивная
Бит/(Пиксели*Кадры)                      : 0.246
Размер потока                            : 3,38 Гбайт (87%)
Язык                                     : English
Default                                  : Да
Forced                                   : Нет
Цветовой диапазон                        : Limited
Основные цвета                           : BT.709
Характеристики трансфера                 : BT.709
Коэффициенты матрицы                     : BT.709
Аудио #1
Идентификатор                            : 2
Формат                                   : AC-3
Формат/Информация                        : Audio Coding 3
Расширение режима                        : CM (complete main)
Параметр Endianness формата              : Big
Идентификатор кодека                     : A_AC3
Продолжительность                        : 1 ч. 59 м.
Вид битрейта                             : Постоянный
Битрейт                                  : 192 Кбит/сек
Каналы                                   : 2 канала
Расположение каналов                     : Front: L R
Частота                                  : 48,0 КГц
Частота кадров                           : 31,250 кадров/сек (1536 spf)
Метод сжатия                             : С потерями
Размер потока                            : 164 Мбайт (4%)
Заголовок                                : DUB
Язык                                     : Russian
Default                                  : Да
Forced                                   : Нет
Аудио #2
Идентификатор                            : 3
Формат                                   : AC-3
Формат/Информация                        : Audio Coding 3
Расширение режима                        : CM (complete main)
Параметр Endianness формата              : Big
Идентификатор кодека                     : A_AC3
Продолжительность                        : 1 ч. 59 м.
Вид битрейта                             : Постоянный
Битрейт                                  : 384 Кбит/сек
Каналы                                   : 6 каналов
Расположение каналов                     : Front: L C R, Side: L R, LFE
Частота                                  : 48,0 КГц
Частота кадров                           : 31,250 кадров/сек (1536 spf)
Метод сжатия                             : С потерями
Размер потока                            : 329 Мбайт (8%)
Заголовок                                : Original
Язык                                     : English
Default                                  : Нет
Forced                                   : Нет
Текст
Идентификатор                            : 4
Формат                                   : UTF-8
Идентификатор кодека                     : S_TEXT/UTF8
Идентификатор кодека/Информация          : UTF-8 Plain Text
Продолжительность                        : 1 ч. 49 м.
Битрейт                                  : 65 бит/сек
Count of elements                        : 1697
Размер потока                            : 52,8 Кбайт (0%)
Заголовок                                : Original
Язык                                     : English
Default                                  : Нет
Forced                                   : Нет
Меню
00:00:00.000                             : en:1
00:05:36.378                             : en:2
00:09:14.512                             : en:3
00:14:05.761                             : en:4
00:19:39.511                             : en:5
00:22:58.042                             : en:6
00:27:09.293                             : en:7
00:31:36.685                             : en:8
00:39:11.014                             : en:9
00:43:40.158                             : en:10
00:47:45.653                             : en:11
00:52:31.230                             : en:12
00:59:09.294                             : en:13
01:01:59.172                             : en:14
01:07:11.108                             : en:15
01:09:53.854                             : en:16
01:13:10.759                             : en:17
01:18:26.491                             : en:18
01:22:44.540                             : en:19
01:27:50.846                             : en:20
01:32:35.755                             : en:21
01:39:37.176                             : en:22
01:47:19.179                             : en:23
01:50:35.750                             : en:24

Скриншоты

-


_________________
Показать сообщения:    

Текущее время: Сегодня 23:14

Часовой пояс: GMT



Вы не можете начинать темы
Вы не можете отвечать на сообщения
Вы не можете редактировать свои сообщения
Вы не можете удалять свои сообщения
Вы не можете голосовать в опросах
Вы не можете прикреплять файлы к сообщениям
Вы не можете скачивать файлы