Важное объявление!
У Нас Все раздачи мультитрекерные, при нуле пиров в релизах, можете смело вставать на закачку!
Статистика раздачи
Размер:     |    Зарегистрирован:     |    Скачан:     |   
Нет
 
     
 
 
Автор Сообщение

HUNTER

Стаж:
5 лет
Сообщений:
68401

Репутация: 101

[+] [-]
Вне форума [Профиль] [ЛС]

День на скачках / A Day at the Races

Слоган: «Three Great Laff Stars ! . . . more gags and gals . . . more songs and dances !»
Страна: США
Студия: Metro-Goldwyn-Mayer (MGM)
Жанр: комедия, спорт
Год выпуска: 1937
Продолжительность: 01:44:50
Перевод: Одноголосый закадровый
Cубтитры: нет
Оригинальная аудиодорожка: английский
Режиссер: Сэм Вуд / Sam Wood
В ролях: Граучо Маркс, Чико Маркс, Харпо Маркс, Аллан Джонс, Морин О’Салливан, Маргарет Дюмон, Leonard Ceeley, Дагласс Дамбрилл, Эстер Мьюир, Сиг Руман ...
Описание: У очаровательной женщины, запутавшейся в долгах, хотят отнять заложенный и перезаложенный санаторий, в котором осталась только одна богатая пациентка, настоявшая на том, чтобы главврачом назначили любовь ее далекой молодости, ветеринара Хэкенбуша.
Доп. информация: Исходник A.Day.at.the.Races.1937.720p.WEB-DL.AAC2.0.H.264-HDStar найден в сети.Спасибо за рус. дорожку comod-- --A Day at the Races (1937)_WEB-DL 720p_Sample_.mkv--Синхронизация звук. дорожки Нордер
За что ему превеликая благодарность
-
-

Награды


-
-Тип релиза: WEB-DL 720p
Контейнер: MKV
Видео: H.264 / AVC Video / 3 984 Kbps / 954x720 / 25.000 fps / 4:3 / Main@L3.1
Аудио 1: Russian / Dolby Digital Audio / 2.0 / 48 kHz / 192 kbps
Аудио 2: English / Dolby Digital Audio / 2.0 / 48 kHz / 192 kbps

MediaInfo

General
Unique ID : 216523822000264632845142680057855881318 (0xA2E4F8A399C5A105BE256C645D1C3066)
Complete name : C:\Temp\_RELEASES_\A Day at the Races (1937)_WEB-DL 720p_.mkv
Format : Matroska
Format version : Version 4 / Version 2
File size : 3.26 GiB
Duration : 1h 44mn
Overall bit rate : 4 457 Kbps
Encoded date : UTC 2015-08-27 22:57:33
Writing application : mkvmerge v7.7.0 ('Six Voices') 32bit built on Feb 28 2015 23:23:00
Writing library : libebml v1.3.1 + libmatroska v1.4.2
Video
ID : 1
Format : AVC
Format/Info : Advanced Video Codec
Format profile : Main@L3.1
Format settings, CABAC : No
Format settings, ReFrames : 2 frames
Codec ID : V_MPEG4/ISO/AVC
Duration : 1h 44mn
Bit rate : 3 984 Kbps
Width : 954 pixels
Height : 720 pixels
Display aspect ratio : 4:3
Frame rate mode : Constant
Frame rate : 25.000 fps
Color space : YUV
Chroma subsampling : 4:2:0
Bit depth : 8 bits
Scan type : Progressive
Bits/(Pixel*Frame) : 0.232
Stream size : 2.92 GiB (89%)
Title : A Day at the Races (1937)_WEB-DL 720p_Muxed by rjhlb777
Language : English
Default : Yes
Forced : No
Color range : Limited
Color primaries : BT.709
Transfer characteristics : BT.709
Matrix coefficients : BT.709
Audio #1
ID : 2
Format : AC-3
Format/Info : Audio Coding 3
Mode extension : CM (complete main)
Format settings, Endianness : Big
Codec ID : A_AC3
Duration : 1h 44mn
Bit rate mode : Constant
Bit rate : 192 Kbps
Channel(s) : 2 channels
Channel positions : Front: L R
Sampling rate : 48.0 KHz
Compression mode : Lossy
Stream size : 144 MiB (4%)
Title : VO
Language : Russian
Default : Yes
Forced : No
Audio #2
ID : 3
Format : AC-3
Format/Info : Audio Coding 3
Mode extension : CM (complete main)
Format settings, Endianness : Big
Codec ID : A_AC3
Duration : 1h 44mn
Bit rate mode : Constant
Bit rate : 192 Kbps
Channel(s) : 2 channels
Channel positions : Front: L R
Sampling rate : 48.0 KHz
Compression mode : Lossy
Stream size : 144 MiB (4%)
Title : Original
Language : English
Default : No
Forced : No

_________________
Показать сообщения:    

Текущее время: Сегодня 13:49

Часовой пояс: GMT



Вы не можете начинать темы
Вы не можете отвечать на сообщения
Вы не можете редактировать свои сообщения
Вы не можете удалять свои сообщения
Вы не можете голосовать в опросах
Вы не можете прикреплять файлы к сообщениям
Вы не можете скачивать файлы